eztv.wf | eztvstatus.org
Search title:  
TV Packs only
 

Ren Faire S01E03 Were Done 1080p MAX WEB-DL DDP5 1 H 264-NTb EZTV

Episode Breakdown
Ren Faire
Ren Faire TV Show S01E03

Season: 1
Episode: 3
Air Date: 9 June, 2024
Download Links
     Torrent Download     Magnet Download
     Anonymous Download
Added 1 month ago by eztv (verified).
Tracker Statistics
Seeds: 6
Peers: 1
Stats generated @ 22:48 on 23rd Jul 2024
Torrent Info
Torrent File: Ren Faire S01E03 Were Done 1080p MAX WEB-DL DDP5 1 H 264-NTb[EZTVx.to].mkv
Torrent Hash: F43BDDF7612C36B537044ADB316264C1FA41C8DB
Filesize: 4.18 GB
Released: 11th Jun 2024

File Format: MKV (Matroska)
Resolution: 1920x1080 px
Aspect Ratio: 16:9
Alternate Releases S L
Ren Faire S01E03 1080p WEB h264-EDITH 22 5
Ren Faire S01E03 XviD-AFG 2 1
Ren Faire S01E03 1080p HEVC x265-MeGusta 27 1
Ren Faire S01E03 Were Done 1080p AMZN WEB-DL DDP5 1 H 264-NTb 5 1
Ren Faire S01E03 Were Done 720p AMZN WEB-DL DDP5 1 H 264-NTb 0 15
Ren Faire S01E03 480p x264-RUBiK 3 1

Ren Faire S01E03 - We're Done!

Summary:

Jeff gains the upper hand over Louie. Darla's promotion to co-General Manager leads to disastrous consequences, for both Jeff and herself. George finally lands on the only successor he can trust.



Ren Faire S01E03 Were Done 1080p MAX WEB-DL DDP5 1 H 264-NTb EZTV
Ren Faire S1E3 Screenshot


General
Unique ID: 231130435897593991784052214569551388712 (0xADE21A4E2E4C18527057C772DED5E028)
Complete name: Ren Faire S01E03 Were Done 1080p MAX WEB-DL DDP5 1 H 264-NTb.mkv
Format: Matroska
Format version: Version 4
File size: 4.18 GiB
Duration: 58 min 54 s
Overall bit rate mode: Variable
Overall bit rate: 10.2 Mb/s
Frame rate: 23.976 FPS
Writing application: mkvmerge v85.0 ('Shame For You') 64-bit
Writing library: libebml v1.4.5 + libmatroska v1.7.1

Video
ID: 1
Format: AVC
Format/Info: Advanced Video Codec
Format profile: [email protected]
Format settings: CABAC / 4 Ref Frames
Format settings, CABAC: Yes
Format settings, Reference frames: 4 frames
Codec ID: V_MPEG4/ISO/AVC
Duration: 58 min 54 s
Bit rate mode: Variable
Bit rate: 9 899 kb/s
Maximum bit rate: 10 000 kb/s
Width: 1 920 pixels
Height: 800 pixels
Display aspect ratio: 2.40:1
Frame rate mode: Constant
Frame rate: 23.976 (24000/1001) FPS
Color space: YUV
Chroma subsampling: 4:2:0
Bit depth: 8 bits
Scan type: Progressive
Bits/(Pixel*Frame): 0.269
Stream size: 4.07 GiB (97%)
Writing library: x264 core 164
Encoding settings: cabac=1 / ref=4 / deblock=1:0:0 / analyse=0x3:0x133 / me=umh / subme=10 / psy=1 / psy_rd=1.00:0.00 / mixed_ref=1 / me_range=24 / chroma_me=1 / trellis=2 / 8x8dct=1 / cqm=0 / deadzone=21,11 / fast_pskip=1 / chroma_qp_offset=-2 / threads=24 / lookahead_threads=2 / sliced_threads=0 / nr=0 / decimate=1 / interlaced=0 / bluray_compat=0 / stitchable=1 / constrained_intra=0 / bframes=3 / b_pyramid=2 / b_adapt=2 / b_bias=0 / direct=3 / weightb=1 / open_gop=0 / weightp=2 / keyint=96 / keyint_min=49 / scenecut=0 / intra_refresh=0 / rc_lookahead=96 / rc=crf / mbtree=1 / crf=20.0 / qcomp=0.60 / qpmin=0 / qpmax=69 / qpstep=4 / vbv_maxrate=10000 / vbv_bufsize=40000 / crf_max=0.0 / nal_hrd=vbr / filler=0 / ip_ratio=1.40 / aq=1:1.00
Default: Yes
Forced: No
Color range: Limited
Color primaries: BT.709
Transfer characteristics: BT.709
Matrix coefficients: BT.709

Audio
ID: 2
Format: E-AC-3
Format/Info: Enhanced AC-3
Commercial name: Dolby Digital Plus
Codec ID: A_EAC3
Duration: 58 min 54 s
Bit rate mode: Constant
Bit rate: 256 kb/s
Channel(s): 6 channels
Channel layout: L R C LFE Ls Rs
Sampling rate: 48.0 kHz
Frame rate: 31.250 FPS (1536 SPF)
Compression mode: Lossy
Stream size: 108 MiB (3%)
Language: English (US)
Service kind: Complete Main
Default: Yes
Forced: No

Text #1
ID: 3
Format: UTF-8
Codec ID: S_TEXT/UTF8
Codec ID/Info: UTF-8 Plain Text
Duration: 57 min 16 s
Bit rate: 82 b/s
Frame rate: 0.291 FPS
Count of elements: 1000
Stream size: 34.6 KiB (0%)
Language: English (US)
Default: No
Forced: No

Text #2
ID: 4
Format: UTF-8
Codec ID: S_TEXT/UTF8
Codec ID/Info: UTF-8 Plain Text
Duration: 58 min 39 s
Bit rate: 94 b/s
Frame rate: 0.326 FPS
Count of elements: 1148
Stream size: 40.5 KiB (0%)
Title: SDH
Language: English (US)
Default: No
Forced: No

Text #3
ID: 5
Format: UTF-8
Codec ID: S_TEXT/UTF8
Codec ID/Info: UTF-8 Plain Text
Duration: 57 min 16 s
Bit rate: 74 b/s
Frame rate: 0.302 FPS
Count of elements: 1038
Stream size: 31.3 KiB (0%)
Language: Spanish (Latin America)
Default: No
Forced: No

Text #4
ID: 6
Format: UTF-8
Codec ID: S_TEXT/UTF8
Codec ID/Info: UTF-8 Plain Text
Duration: 58 min 39 s
Bit rate: 86 b/s
Frame rate: 0.334 FPS
Count of elements: 1174
Stream size: 37.2 KiB (0%)
Title: SDH
Language: Spanish (Latin America)
Default: No
Forced: No

Menu
00:00:00.000: en:Chapter 1
00:09:19.016: en:Chapter 2
00:23:12.891: en:Chapter 3
00:33:40.184: en:Chapter 4
00:47:35.644: en:Chapter 5
00:57:53.303: en:Credits
00:58:54.322: en:Chapter 6

ssl  EZTV RSS EZTV Status | EZTV API | DMCA: [email protected]