eztv.wf | eztvstatus.org
Search title:  
TV Packs only
 

Clipped 2024 S01E03 Let the Games Begin 720p DSNP WEB-DL DDP5 1 H 264-FLUX EZTV

Episode Breakdown
Clipped
Clipped TV Show S01E03

Season: 1
Episode: 3
Air Date: 11 June, 2024
Download Links
     Torrent Download     Magnet Download
     Anonymous Download
Added 1 month ago by eztv (verified).
Tracker Statistics
Seeds: 5
Peers: 3
Stats generated @ 13:55 on 19th Jul 2024
Torrent Info
Torrent File: Clipped 2024 S01E03 Let the Games Begin 720p DSNP WEB-DL DDP5 1 H 264-FLUX[EZTVx.to].mkv
Torrent Hash: FA0A093EFA921008ED72DB1F8512F8506441047C
Filesize: 1.16 GB
Released: 11th Jun 2024

File Format: MKV (Matroska)
Resolution: 1280x720 px
Aspect Ratio: 16:9
Alternate Releases S L
Clipped 2024 S01E03 1080p WEB H264-SuccessfulCrab 31 6
Clipped 2024 S01E03 XviD-AFG 7 1
Clipped 2024 S01E03 Let the Games Begin 1080p DSNP WEB-DL DDP5 1 H 264-FLUX 5 1
Clipped 2024 S01E03 MULTi 1080p WEB H264-UKDTV 0 3
Clipped 2024 S01E03 480p x264-RUBiK 1 4
Clipped 2024 S01E03 1080p HEVC x265-MeGusta 7 4
Clipped 2024 S01E03 480p x264-mSD 0 1

Clipped S01E03 - Let the Games Began

Summary:

The tape hits TMZ, right in time to disrupt the Clippers' hard-won momentum and Donald's 80th birthday. V. responds to the outrage with curious sartorial choices.



Clipped 2024 S01E03 Let the Games Begin 720p DSNP WEB-DL DDP5 1 H 264-FLUX EZTV
Clipped S1E3 Screenshot


General
Unique ID: 134334884225521670305182964334451398024 (0x650FF525F76B11E790D7D874676E9588)
Complete name: Clipped 2024 S01E03 Let the Games Begin 720p DSNP WEB-DL DDP5 1 H 264-FLUX.mkv
Format: Matroska
Format version: Version 4
File size: 1.16 GiB
Duration: 49 min 13 s
Overall bit rate mode: Variable
Overall bit rate: 3 387 kb/s
Frame rate: 23.976 FPS
Writing application: mkvmerge v85.0 ('Shame For You') 64-bit
Writing library: libebml v1.4.5 + libmatroska v1.7.1

Video
ID: 1
Format: AVC
Format/Info: Advanced Video Codec
Format profile: [email protected]
Format settings: CABAC / 4 Ref Frames
Format settings, CABAC: Yes
Format settings, Reference frames: 4 frames
Codec ID: V_MPEG4/ISO/AVC
Duration: 49 min 13 s
Bit rate mode: Variable
Bit rate: 3 125 kb/s
Maximum bit rate: 6 375 kb/s
Width: 1 280 pixels
Height: 720 pixels
Display aspect ratio: 16:9
Frame rate mode: Constant
Frame rate: 23.976 (24000/1001) FPS
Color space: YUV
Chroma subsampling: 4:2:0
Bit depth: 8 bits
Scan type: Progressive
Bits/(Pixel*Frame): 0.141
Time code of first frame: 00:00:00:0000000000
Stream size: 1.07 GiB (92%)
Language: English
Default: Yes
Forced: No
Color range: Limited
Color primaries: BT.709
Transfer characteristics: BT.709
Matrix coefficients: BT.709

Audio
ID: 2
Format: E-AC-3
Format/Info: Enhanced AC-3
Commercial name: Dolby Digital Plus
Codec ID: A_EAC3
Duration: 49 min 13 s
Bit rate mode: Constant
Bit rate: 256 kb/s
Channel(s): 6 channels
Channel layout: L R C LFE Ls Rs
Sampling rate: 48.0 kHz
Frame rate: 31.250 FPS (1536 SPF)
Compression mode: Lossy
Stream size: 90.1 MiB (8%)
Language: English
Service kind: Complete Main
Default: Yes
Forced: No

Text #1
ID: 3
Format: UTF-8
Codec ID: S_TEXT/UTF8
Codec ID/Info: UTF-8 Plain Text
Duration: 48 min 46 s
Bit rate: 88 b/s
Frame rate: 0.284 FPS
Count of elements: 830
Stream size: 31.6 KiB (0%)
Language: English
Default: No
Forced: No

Text #2
ID: 4
Format: UTF-8
Codec ID: S_TEXT/UTF8
Codec ID/Info: UTF-8 Plain Text
Duration: 48 min 46 s
Bit rate: 97 b/s
Frame rate: 0.302 FPS
Count of elements: 884
Stream size: 34.7 KiB (0%)
Title: SDH
Language: English
Default: No
Forced: No

Text #3
ID: 5
Format: UTF-8
Codec ID: S_TEXT/UTF8
Codec ID/Info: UTF-8 Plain Text
Duration: 48 min 55 s
Bit rate: 76 b/s
Frame rate: 0.272 FPS
Count of elements: 799
Stream size: 27.5 KiB (0%)
Language: Czech
Default: No
Forced: No

Text #4
ID: 6
Format: UTF-8
Codec ID: S_TEXT/UTF8
Codec ID/Info: UTF-8 Plain Text
Duration: 48 min 55 s
Bit rate: 79 b/s
Frame rate: 0.278 FPS
Count of elements: 817
Stream size: 28.4 KiB (0%)
Language: Danish
Default: No
Forced: No

Text #5
ID: 7
Format: UTF-8
Codec ID: S_TEXT/UTF8
Codec ID/Info: UTF-8 Plain Text
Duration: 48 min 55 s
Bit rate: 88 b/s
Frame rate: 0.262 FPS
Count of elements: 768
Stream size: 31.6 KiB (0%)
Language: German
Default: No
Forced: No

Text #6
ID: 8
Format: UTF-8
Codec ID: S_TEXT/UTF8
Codec ID/Info: UTF-8 Plain Text
Duration: 48 min 55 s
Bit rate: 140 b/s
Frame rate: 0.270 FPS
Count of elements: 792
Stream size: 50.4 KiB (0%)
Language: Greek
Default: No
Forced: No

Text #7
ID: 9
Format: UTF-8
Codec ID: S_TEXT/UTF8
Codec ID/Info: UTF-8 Plain Text
Duration: 48 min 55 s
Bit rate: 78 b/s
Frame rate: 0.267 FPS
Count of elements: 785
Stream size: 28.2 KiB (0%)
Title: Latin American
Language: Spanish (Latin America)
Default: No
Forced: No

Text #8
ID: 10
Format: UTF-8
Codec ID: S_TEXT/UTF8
Codec ID/Info: UTF-8 Plain Text
Duration: 48 min 55 s
Bit rate: 78 b/s
Frame rate: 0.248 FPS
Count of elements: 728
Stream size: 28.2 KiB (0%)
Language: Spanish (ES)
Default: No
Forced: No

Text #9
ID: 11
Format: UTF-8
Codec ID: S_TEXT/UTF8
Codec ID/Info: UTF-8 Plain Text
Duration: 48 min 55 s
Bit rate: 87 b/s
Frame rate: 0.280 FPS
Count of elements: 823
Stream size: 31.5 KiB (0%)
Language: Finnish
Default: No
Forced: No

Text #10
ID: 12
Format: UTF-8
Codec ID: S_TEXT/UTF8
Codec ID/Info: UTF-8 Plain Text
Duration: 48 min 55 s
Bit rate: 84 b/s
Frame rate: 0.273 FPS
Count of elements: 802
Stream size: 30.2 KiB (0%)
Language: French (FR)
Default: No
Forced: No

Text #11
ID: 13
Format: UTF-8
Codec ID: S_TEXT/UTF8
Codec ID/Info: UTF-8 Plain Text
Duration: 48 min 55 s
Bit rate: 82 b/s
Frame rate: 0.280 FPS
Count of elements: 821
Stream size: 29.6 KiB (0%)
Language: Hungarian
Default: No
Forced: No

Text #12
ID: 14
Format: UTF-8
Codec ID: S_TEXT/UTF8
Codec ID/Info: UTF-8 Plain Text
Duration: 48 min 55 s
Bit rate: 75 b/s
Frame rate: 0.267 FPS
Count of elements: 783
Stream size: 27.2 KiB (0%)
Language: Italian
Default: No
Forced: No

Text #13
ID: 15
Format: UTF-8
Codec ID: S_TEXT/UTF8
Codec ID/Info: UTF-8 Plain Text
Duration: 48 min 52 s
Bit rate: 65 b/s
Frame rate: 0.260 FPS
Count of elements: 762
Stream size: 23.4 KiB (0%)
Language: Japanese
Default: No
Forced: No

Text #14
ID: 16
Format: UTF-8
Codec ID: S_TEXT/UTF8
Codec ID/Info: UTF-8 Plain Text
Duration: 48 min 55 s
Bit rate: 93 b/s
Frame rate: 0.281 FPS
Count of elements: 824
Stream size: 33.6 KiB (0%)
Language: Korean
Default: No
Forced: No

Text #15
ID: 17
Format: UTF-8
Codec ID: S_TEXT/UTF8
Codec ID/Info: UTF-8 Plain Text
Duration: 48 min 55 s
Bit rate: 69 b/s
Frame rate: 0.188 FPS
Count of elements: 553
Stream size: 25.0 KiB (0%)
Language: Dutch
Default: No
Forced: No

Text #16
ID: 18
Format: UTF-8
Codec ID: S_TEXT/UTF8
Codec ID/Info: UTF-8 Plain Text
Duration: 48 min 55 s
Bit rate: 71 b/s
Frame rate: 0.245 FPS
Count of elements: 720
Stream size: 25.6 KiB (0%)
Language: Norwegian
Default: No
Forced: No

Text #17
ID: 19
Format: UTF-8
Codec ID: S_TEXT/UTF8
Codec ID/Info: UTF-8 Plain Text
Duration: 48 min 55 s
Bit rate: 73 b/s
Frame rate: 0.273 FPS
Count of elements: 802
Stream size: 26.4 KiB (0%)
Language: Polish
Default: No
Forced: No

Text #18
ID: 20
Format: UTF-8
Codec ID: S_TEXT/UTF8
Codec ID/Info: UTF-8 Plain Text
Duration: 48 min 55 s
Bit rate: 76 b/s
Frame rate: 0.271 FPS
Count of elements: 796
Stream size: 27.5 KiB (0%)
Title: Brazilian
Language: Portuguese (BR)
Default: No
Forced: No

Text #19
ID: 21
Format: UTF-8
Codec ID: S_TEXT/UTF8
Codec ID/Info: UTF-8 Plain Text
Duration: 48 min 55 s
Bit rate: 83 b/s
Frame rate: 0.278 FPS
Count of elements: 815
Stream size: 29.9 KiB (0%)
Language: Portuguese (PT)
Default: No
Forced: No

Text #20
ID: 22
Format: UTF-8
Codec ID: S_TEXT/UTF8
Codec ID/Info: UTF-8 Plain Text
Duration: 48 min 55 s
Bit rate: 76 b/s
Frame rate: 0.224 FPS
Count of elements: 658
Stream size: 27.3 KiB (0%)
Language: Romanian
Default: No
Forced: No

Text #21
ID: 23
Format: UTF-8
Codec ID: S_TEXT/UTF8
Codec ID/Info: UTF-8 Plain Text
Duration: 48 min 55 s
Bit rate: 78 b/s
Frame rate: 0.277 FPS
Count of elements: 814
Stream size: 28.0 KiB (0%)
Language: Slovak
Default: No
Forced: No

Text #22
ID: 24
Format: UTF-8
Codec ID: S_TEXT/UTF8
Codec ID/Info: UTF-8 Plain Text
Duration: 48 min 55 s
Bit rate: 81 b/s
Frame rate: 0.280 FPS
Count of elements: 823
Stream size: 29.1 KiB (0%)
Language: Swedish
Default: No
Forced: No

Text #23
ID: 25
Format: UTF-8
Codec ID: S_TEXT/UTF8
Codec ID/Info: UTF-8 Plain Text
Duration: 48 min 55 s
Bit rate: 82 b/s
Frame rate: 0.274 FPS
Count of elements: 803
Stream size: 29.6 KiB (0%)
Language: Turkish
Default: No
Forced: No

Text #24
ID: 26
Format: UTF-8
Codec ID: S_TEXT/UTF8
Codec ID/Info: UTF-8 Plain Text
Duration: 48 min 55 s
Bit rate: 82 b/s
Frame rate: 0.284 FPS
Count of elements: 835
Stream size: 29.5 KiB (0%)
Title: Traditional
Language: Chinese (Traditional)
Default: No
Forced: No

Menu
00:02:32.319: en:Intro
00:02:36.865: en:Scene 1
00:48:12.559: en:Credits
ssl  EZTV RSS EZTV Status | EZTV API | DMCA: [email protected]