eztv.wf | eztvstatus.org
Search title:  
TV Packs only
 

Smiling Friends S02E06 Charlie Pim and Bill vs the Alien 1080p AMZN WEB-DL DDP5 1 H 264-FLUX EZTV

Episode Breakdown
Smiling Friends
Smiling Friends TV Show S02E06

Season: 2
Episode: 6
Air Date: 9 June, 2024
Download Links
     Torrent Download     Magnet Download
     Anonymous Download
Added 1 month ago by eztv (verified).
Tracker Statistics
Seeds: 70
Peers: 34
Stats generated @ 15:49 on 14th Jul 2024
Torrent Info
Torrent File: Smiling Friends S02E06 Charlie Pim and Bill vs the Alien 1080p AMZN WEB-DL DDP5 1 H 264-FLUX[EZTVx.to].mkv
Torrent Hash: 7E98F60F9A675CE3B8050377667B25837C837D71
Filesize: 509 MB
Released: 12th Jun 2024

File Format: MKV (Matroska)
Resolution: 1920x1080 px
Aspect Ratio: 16:9
Alternate Releases S L
Smiling Friends S02E06 MULTi 1080p WEB H264-AMB3R 577 42
Smiling Friends S02E06 1080p WEB h264-EDITH 67 48
Smiling Friends S02E06 XviD-AFG 9 8
Smiling Friends S02E06 1080p HEVC x265-MeGusta 55 21

Smiling Friends S02E06 - Charlie, Pim & Bill vs. The Alien

Summary:

This episode tells the story of a thirty-four year-old boy named Pim who sets out to save his mother on Mars after she is abducted by Martians.



Smiling Friends S02E06 Charlie Pim and Bill vs the Alien 1080p AMZN WEB-DL DDP5 1 H 264-FLUX EZTV
Smiling Friends S2E6 Screenshot


General
Unique ID: 300418288059852600906731044750915503854 (0xE202752A9F18CB5CA54B5A65602386EE)
Complete name: Smiling Friends S02E06 Charlie Pim and Bill vs the Alien 1080p AMZN WEB-DL DDP5 1 H 264-FLUX.mkv
Format: Matroska
Format version: Version 4
File size: 509 MiB
Duration: 11 min 13 s
Overall bit rate: 6 337 kb/s
Frame rate: 23.976 FPS
Writing application: mkvmerge v83.0 ('Circle Of Friends') 64-bit
Writing library: libebml v1.4.5 + libmatroska v1.7.1

Video
ID: 1
Format: AVC
Format/Info: Advanced Video Codec
Format profile: High@L4
Format settings: CABAC / 4 Ref Frames
Format settings, CABAC: Yes
Format settings, Reference frames: 4 frames
Codec ID: V_MPEG4/ISO/AVC
Duration: 11 min 13 s
Bit rate mode: Constant
Bit rate: 5 694 kb/s
Nominal bit rate: 10 000 kb/s
Width: 1 920 pixels
Height: 1 080 pixels
Display aspect ratio: 16:9
Frame rate mode: Constant
Frame rate: 23.976 (24000/1001) FPS
Color space: YUV
Chroma subsampling: 4:2:0
Bit depth: 8 bits
Scan type: Progressive
Bits/(Pixel*Frame): 0.115
Stream size: 457 MiB (90%)
Language: English (US)
Default: Yes
Forced: No
Color range: Limited
Color primaries: BT.709
Transfer characteristics: BT.709
Matrix coefficients: BT.709

Audio
ID: 2
Format: E-AC-3
Format/Info: Enhanced AC-3
Commercial name: Dolby Digital Plus
Codec ID: A_EAC3
Duration: 11 min 13 s
Bit rate mode: Constant
Bit rate: 640 kb/s
Channel(s): 6 channels
Channel layout: L R C LFE Ls Rs
Sampling rate: 48.0 kHz
Frame rate: 31.250 FPS (1536 SPF)
Compression mode: Lossy
Stream size: 51.4 MiB (10%)
Language: English
Service kind: Complete Main
Default: Yes
Forced: No

Text #1
ID: 3
Format: UTF-8
Codec ID: S_TEXT/UTF8
Codec ID/Info: UTF-8 Plain Text
Duration: 10 min 53 s
Bit rate: 115 b/s
Frame rate: 0.435 FPS
Count of elements: 284
Stream size: 9.23 KiB (0%)
Language: English (US)
Default: No
Forced: No

Text #2
ID: 4
Format: UTF-8
Codec ID: S_TEXT/UTF8
Codec ID/Info: UTF-8 Plain Text
Duration: 11 min 3 s
Bit rate: 124 b/s
Frame rate: 0.531 FPS
Count of elements: 352
Stream size: 10.1 KiB (0%)
Title: SDH
Language: English (US)
Default: No
Forced: No

Menu
00:00:00.000: en:Scene 1
00:11:08.000: en:Outro
ssl  EZTV RSS EZTV Status | EZTV API | DMCA: [email protected]