eztv.wf | eztvstatus.org
Search title:  
TV Packs only
 

Last Week Tonight with John Oliver S11E14 1080p AMZN WEB-DL DDP2 0 H 264-NTb EZTV

Episode Breakdown
Last Week Tonight with John Oliver
Last Week Tonight with John Oliver TV Show S11E14

Season: 11
Episode: 14
Air Date: 9 June, 2024
Download Links
     Torrent Download     Magnet Download
     Anonymous Download
Added 1 month ago by eztv (verified).
Tracker Statistics
Seeds: 23
Peers: 7
Stats generated @ 15:10 on 19th Jul 2024
Torrent Info
Torrent File: Last.Week.Tonight.with.John.Oliver.S11E14.1080p.AMZN.WEB-DL.DDP2.0.H.264-NTb[EZTVx.to].mkv
Torrent Hash: F4FF7A0BD56E4C02062D9B29A8AA437A57FB3503
Filesize: 2.71 GB
Released: 12th Jun 2024

File Format: MKV (Matroska)
Resolution: 1920x1080 px
Aspect Ratio: 16:9
Alternate Releases S L
Last Week Tonight with John Oliver S11E14 1080p WEB H264-SuccessfulCrab 108 6
Last Week Tonight with John Oliver S11E14 1080p HEVC x265-MeGusta 123 13
Last Week Tonight with John Oliver S11E14 XviD-AFG 16 4
Last Week Tonight with John Oliver S11E14 720p AMZN WEB-DL DDP2 0 H 264-NTb 68 5

Last Week Tonight with John Oliver S11E14 - Deep Sea Mining

Summary:

This week's main story is about deep-sea mining, whether it's worth doing, and what John has in common with Henry Kissinger (unrelated, but still important to note).



Last Week Tonight with John Oliver S11E14 1080p AMZN WEB-DL DDP2 0 H 264-NTb EZTV
Last Week Tonight with John Oliver S11E14 Screenshot


General
Unique ID: 248390524626586685327890739771228268207 (0xBADE4661AF1BE15085705622A03BA6AF)
Complete name: Last.Week.Tonight.with.John.Oliver.S11E14.1080p.AMZN.WEB-DL.DDP2.0.H.264-NTb.mkv
Format: Matroska
Format version: Version 4
File size: 2.71 GiB
Duration: 38 min 47 s
Overall bit rate: 10.0 Mb/s
Frame rate: 29.970 FPS
Writing application: mkvmerge v84.0 ('Sleeper') 64-bit
Writing library: libebml v1.4.5 + libmatroska v1.7.1

Video
ID: 1
Format: AVC
Format/Info: Advanced Video Codec
Format profile: High@L4
Format settings: CABAC / 4 Ref Frames
Format settings, CABAC: Yes
Format settings, Reference frames: 4 frames
Codec ID: V_MPEG4/ISO/AVC
Duration: 38 min 47 s
Bit rate mode: Constant
Bit rate: 10 000 kb/s
Width: 1 920 pixels
Height: 1 080 pixels
Display aspect ratio: 16:9
Frame rate mode: Constant
Frame rate: 29.970 (30000/1001) FPS
Color space: YUV
Chroma subsampling: 4:2:0
Bit depth: 8 bits
Scan type: Progressive
Bits/(Pixel*Frame): 0.161
Stream size: 2.65 GiB (98%)
Default: Yes
Forced: No
Color range: Limited
Color primaries: BT.709
Transfer characteristics: BT.709
Matrix coefficients: BT.709

Audio
ID: 2
Format: E-AC-3
Format/Info: Enhanced AC-3
Commercial name: Dolby Digital Plus
Codec ID: A_EAC3
Duration: 38 min 47 s
Bit rate mode: Constant
Bit rate: 224 kb/s
Channel(s): 2 channels
Channel layout: L R
Sampling rate: 48.0 kHz
Frame rate: 31.250 FPS (1536 SPF)
Compression mode: Lossy
Stream size: 62.1 MiB (2%)
Language: English (US)
Service kind: Complete Main
Default: Yes
Forced: No

Text #1
ID: 3
Format: UTF-8
Codec ID: S_TEXT/UTF8
Codec ID/Info: UTF-8 Plain Text
Duration: 38 min 9 s
Bit rate: 127 b/s
Frame rate: 0.656 FPS
Count of elements: 1501
Stream size: 35.5 KiB (0%)
Language: English (US)
Default: No
Forced: No

Text #2
ID: 4
Format: UTF-8
Codec ID: S_TEXT/UTF8
Codec ID/Info: UTF-8 Plain Text
Duration: 38 min 34 s
Bit rate: 127 b/s
Frame rate: 0.652 FPS
Count of elements: 1510
Stream size: 35.9 KiB (0%)
Title: SDH
Language: English (US)
Default: No
Forced: No

ssl  EZTV RSS EZTV Status | EZTV API | DMCA: [email protected]