eztv.wf | eztvstatus.org
Search title:  
TV Packs only
 

Six Schizophrenic Brothers S01E01 Part One Perception 1080p AMZN WEB-DL DDP2 0 H 264-FLUX EZTV

Episode Breakdown
Six Schizophrenic Brothers
Six Schizophrenic Brothers TV Show S01E01

Season: 1
Episode: 1
Download Links
     Torrent Download     Magnet Download
     Anonymous Download
Added 1 month ago by eztv (verified).
Tracker Statistics
Seeds: 39
Peers: 22
Stats generated @ 13:21 on 19th Jul 2024
Torrent Info
Torrent File: Six Schizophrenic Brothers S01E01 Part One Perception 1080p AMZN WEB-DL DDP2 0 H 264-FLUX[EZTVx.to].mkv
Torrent Hash: 73EE697D0DC99ED4302540E5C3AE83097C7EFC10
Filesize: 2.45 GB
Released: 12th Jun 2024

File Format: MKV (Matroska)
Resolution: 1920x1080 px
Aspect Ratio: 16:9
Alternate Releases S L
Six Schizophrenic Brothers S01E01 1080p WEB h264-FREQUENCY 2 4
Six Schizophrenic Brothers S01E01 XviD-AFG 14 5
Six Schizophrenic Brothers S01E01 1080p HEVC x265-MeGusta 11 9

Episode Description
Six Schizophrenic Brothers S01E01 Part One Perception 1080p AMZN WEB-DL DDP2 0 H 264-FLUX EZTV
Six Schizophrenic Brothers S1E1 Screenshot


General
Unique ID: 15507114500425940904220707269860547814 (0xBAA8FC61D60447D1B1B979029025CE6)
Complete name: Six Schizophrenic Brothers S01E01 Part One Perception 1080p AMZN WEB-DL DDP2 0 H 264-FLUX.mkv
Format: Matroska
Format version: Version 4
File size: 2.45 GiB
Duration: 41 min 39 s
Overall bit rate: 8 406 kb/s
Frame rate: 25.000 FPS
Writing application: mkvmerge v79.0 ('Funeral Pyres') 64-bit
Writing library: libebml v1.4.4 + libmatroska v1.7.1

Video
ID: 1
Format: AVC
Format/Info: Advanced Video Codec
Format profile: High@L4
Format settings: CABAC / 4 Ref Frames
Format settings, CABAC: Yes
Format settings, Reference frames: 4 frames
Codec ID: V_MPEG4/ISO/AVC
Duration: 41 min 39 s
Bit rate mode: Constant
Bit rate: 8 180 kb/s
Nominal bit rate: 10 000 kb/s
Width: 1 920 pixels
Height: 1 080 pixels
Display aspect ratio: 16:9
Frame rate mode: Constant
Frame rate: 25.000 FPS
Color space: YUV
Chroma subsampling: 4:2:0
Bit depth: 8 bits
Scan type: Progressive
Bits/(Pixel*Frame): 0.158
Stream size: 2.38 GiB (97%)
Default: Yes
Forced: No
Color range: Limited
Color primaries: BT.709
Transfer characteristics: BT.709
Matrix coefficients: BT.709

Audio
ID: 2
Format: E-AC-3
Format/Info: Enhanced AC-3
Commercial name: Dolby Digital Plus
Codec ID: A_EAC3
Duration: 41 min 39 s
Bit rate mode: Constant
Bit rate: 224 kb/s
Channel(s): 2 channels
Channel layout: L R
Sampling rate: 48.0 kHz
Frame rate: 31.250 FPS (1536 SPF)
Compression mode: Lossy
Stream size: 66.8 MiB (3%)
Language: English (US)
Service kind: Complete Main
Default: Yes
Forced: No

Text #1
ID: 3
Format: UTF-8
Codec ID: S_TEXT/UTF8
Codec ID/Info: UTF-8 Plain Text
Duration: 41 min 25 s
Bit rate: 95 b/s
Frame rate: 0.328 FPS
Count of elements: 816
Stream size: 28.9 KiB (0%)
Language: English (US)
Default: No
Forced: No

Text #2
ID: 4
Format: UTF-8
Codec ID: S_TEXT/UTF8
Codec ID/Info: UTF-8 Plain Text
Duration: 41 min 30 s
Bit rate: 98 b/s
Frame rate: 0.334 FPS
Count of elements: 833
Stream size: 30.0 KiB (0%)
Title: SDH
Language: English (US)
Default: No
Forced: No
ssl  EZTV RSS EZTV Status | EZTV API | DMCA: [email protected]