eztv.wf | eztvstatus.org
Search title:  
TV Packs only
 

Six Schizophrenic Brothers S01E04 Part Four Reality 1080p AMZN WEB-DL DDP2 0 H 264-FLUX EZTV

Episode Breakdown
Six Schizophrenic Brothers
Six Schizophrenic Brothers TV Show S01E04

Season: 1
Episode: 4
Download Links
     Torrent Download     Magnet Download
     Anonymous Download
Added 1 month ago by eztv (verified).
Tracker Statistics
Seeds: 41
Peers: 13
Stats generated @ 08:42 on 23rd Jul 2024
Torrent Info
Torrent File: Six Schizophrenic Brothers S01E04 Part Four Reality 1080p AMZN WEB-DL DDP2 0 H 264-FLUX[EZTVx.to].mkv
Torrent Hash: 49EE40A1CED00F7F7C9AA96F9C96FCB6AA322E43
Filesize: 2.56 GB
Released: 12th Jun 2024

File Format: MKV (Matroska)
Resolution: 1920x1080 px
Aspect Ratio: 16:9
Alternate Releases S L
Six Schizophrenic Brothers S01E04 1080p WEB h264-EDITH 3 2
Six Schizophrenic Brothers S01E04 XviD-AFG 13 3

Episode Description


Six Schizophrenic Brothers S01E04 Part Four Reality 1080p AMZN WEB-DL DDP2 0 H 264-FLUX EZTV
Six Schizophrenic Brothers S1E4 Screenshot


General
Unique ID: 150890661166697305796190802221358208398 (0x71847BF8EAF005DEE055196BC2F9558E)
Complete name: Six Schizophrenic Brothers S01E04 Part Four Reality 1080p AMZN WEB-DL DDP2 0 H 264-FLUX.mkv
Format: Matroska
Format version: Version 4
File size: 2.56 GiB
Duration: 41 min 40 s
Overall bit rate: 8 786 kb/s
Frame rate: 25.000 FPS
Writing application: mkvmerge v79.0 ('Funeral Pyres') 64-bit
Writing library: libebml v1.4.4 + libmatroska v1.7.1

Video
ID: 1
Format: AVC
Format/Info: Advanced Video Codec
Format profile: High@L4
Format settings: CABAC / 4 Ref Frames
Format settings, CABAC: Yes
Format settings, Reference frames: 4 frames
Codec ID: V_MPEG4/ISO/AVC
Duration: 41 min 40 s
Bit rate mode: Constant
Bit rate: 8 559 kb/s
Nominal bit rate: 10 000 kb/s
Width: 1 920 pixels
Height: 1 080 pixels
Display aspect ratio: 16:9
Frame rate mode: Constant
Frame rate: 25.000 FPS
Color space: YUV
Chroma subsampling: 4:2:0
Bit depth: 8 bits
Scan type: Progressive
Bits/(Pixel*Frame): 0.165
Stream size: 2.49 GiB (97%)
Default: Yes
Forced: No
Color range: Limited
Color primaries: BT.709
Transfer characteristics: BT.709
Matrix coefficients: BT.709

Audio
ID: 2
Format: E-AC-3
Format/Info: Enhanced AC-3
Commercial name: Dolby Digital Plus
Codec ID: A_EAC3
Duration: 41 min 40 s
Bit rate mode: Constant
Bit rate: 224 kb/s
Channel(s): 2 channels
Channel layout: L R
Sampling rate: 48.0 kHz
Frame rate: 31.250 FPS (1536 SPF)
Compression mode: Lossy
Stream size: 66.8 MiB (3%)
Language: English (US)
Service kind: Complete Main
Default: Yes
Forced: No

Text #1
ID: 3
Format: UTF-8
Codec ID: S_TEXT/UTF8
Codec ID/Info: UTF-8 Plain Text
Duration: 41 min 16 s
Bit rate: 80 b/s
Frame rate: 0.244 FPS
Count of elements: 605
Stream size: 24.3 KiB (0%)
Language: English (US)
Default: No
Forced: No

Text #2
ID: 4
Format: UTF-8
Codec ID: S_TEXT/UTF8
Codec ID/Info: UTF-8 Plain Text
Duration: 41 min 29 s
Bit rate: 83 b/s
Frame rate: 0.249 FPS
Count of elements: 621
Stream size: 25.4 KiB (0%)
Title: SDH
Language: English (US)
Default: No
Forced: No
ssl  EZTV RSS EZTV Status | EZTV API | DMCA: [email protected]