eztv.wf | eztvstatus.org
Search title:  
TV Packs only
 

How Music Got Free S01E02 Internet Killed the Radio Star 1080p AMZN WEB-DL DDP5 1 H 264-FLUX EZTV

Episode Breakdown
How Music Got Free
How Music Got Free TV Show S01E02

Season: 1
Episode: 2
Air Date: 11 June, 2024
Download Links
     Torrent Download     Magnet Download
     Anonymous Download
Added 1 month ago by eztv (verified).
Tracker Statistics
Seeds: 3
Peers: 1
Stats generated @ 07:43 on 23rd Jul 2024
Torrent Info
Torrent File: How Music Got Free S01E02 Internet Killed the Radio Star 1080p AMZN WEB-DL DDP5 1 H 264-FLUX[EZTVx.to].mkv
Torrent Hash: 2F14A6EAE0E286E4CD9E019903B725A525BB0071
Filesize: 2.92 GB
Released: 12th Jun 2024

File Format: MKV (Matroska)
Resolution: 1920x1080 px
Aspect Ratio: 16:9
Alternate Releases S L
How Music Got Free 2024 S01E02 1080p WEB H264-ShoutOutToKali 28 1
How Music Got Free 2024 S01E02 XviD-AFG 17 4
How Music Got Free 2024 S01E02 1080p HEVC x265-MeGusta 8 0

How Music Got Free S01E02 - Internet Killed the Radio Star

Summary:

As album sales drop, the music industry takes legal action against fans causing a PR nightmare. Meanwhile, the FBI launches a major investigation against internet pirates and begin their crackdown.



How Music Got Free S01E02 Internet Killed the Radio Star 1080p AMZN WEB-DL DDP5 1 H 264-FLUX EZTV
How Music Got Free S1E2 Screenshot


General
Unique ID: 129694655253522784738349196822185512534 (0x619248325476B9D2DF7CBFCC89580E56)
Complete name: How Music Got Free S01E02 Internet Killed the Radio Star 1080p AMZN WEB-DL DDP5 1 H 264-FLUX.mkv
Format: Matroska
Format version: Version 4
File size: 2.92 GiB
Duration: 42 min 7 s
Overall bit rate: 9 930 kb/s
Frame rate: 23.976 FPS
Writing application: mkvmerge v79.0 ('Funeral Pyres') 64-bit
Writing library: libebml v1.4.4 + libmatroska v1.7.1

Video
ID: 1
Format: AVC
Format/Info: Advanced Video Codec
Format profile: High@L4
Format settings: CABAC / 4 Ref Frames
Format settings, CABAC: Yes
Format settings, Reference frames: 4 frames
Codec ID: V_MPEG4/ISO/AVC
Duration: 42 min 7 s
Bit rate mode: Constant
Bit rate: 9 287 kb/s
Nominal bit rate: 10 000 kb/s
Width: 1 920 pixels
Height: 1 080 pixels
Display aspect ratio: 16:9
Frame rate mode: Constant
Frame rate: 23.976 (24000/1001) FPS
Color space: YUV
Chroma subsampling: 4:2:0
Bit depth: 8 bits
Scan type: Progressive
Bits/(Pixel*Frame): 0.187
Stream size: 2.73 GiB (94%)
Language: English (US)
Default: Yes
Forced: No
Color range: Limited
Color primaries: BT.709
Transfer characteristics: BT.709
Matrix coefficients: BT.709

Audio
ID: 2
Format: E-AC-3
Format/Info: Enhanced AC-3
Commercial name: Dolby Digital Plus
Codec ID: A_EAC3
Duration: 42 min 7 s
Bit rate mode: Constant
Bit rate: 640 kb/s
Channel(s): 6 channels
Channel layout: L R C LFE Ls Rs
Sampling rate: 48.0 kHz
Frame rate: 31.250 FPS (1536 SPF)
Compression mode: Lossy
Stream size: 193 MiB (6%)
Language: English (US)
Service kind: Complete Main
Default: Yes
Forced: No

Text #1
ID: 3
Format: UTF-8
Codec ID: S_TEXT/UTF8
Codec ID/Info: UTF-8 Plain Text
Duration: 41 min 38 s
Bit rate: 128 b/s
Frame rate: 0.402 FPS
Count of elements: 1005
Stream size: 39.2 KiB (0%)
Language: English (US)
Default: No
Forced: No

Text #2
ID: 4
Format: UTF-8
Codec ID: S_TEXT/UTF8
Codec ID/Info: UTF-8 Plain Text
Duration: 41 min 38 s
Bit rate: 130 b/s
Frame rate: 0.414 FPS
Count of elements: 1034
Stream size: 39.8 KiB (0%)
Title: SDH
Language: English (US)
Default: No
Forced: No

Menu
00:00:00.000: en:Scene 1
00:00:09.000: en:Recap
00:00:35.000: en:Scene 2
00:42:02.000: en:Outro

ssl  EZTV RSS EZTV Status | EZTV API | DMCA: [email protected]