eztv.wf | eztvstatus.org
Search title:  
TV Packs only
 

Brigada Nimic S01E13 1080p WEB-DL AAC2 0 H 264-playWEB EZTV

Episode Breakdown
Brigada Nimic
Brigada Nimic TV Show S01E13

Season: 1
Episode: 13
Download Links
     Torrent Download     Magnet Download
     Anonymous Download
Added 1 month ago by eztv (verified).
Tracker Statistics
Seeds: 0
Peers: 1
Stats generated @ 22:49 on 23rd Jul 2024
Torrent Info
Torrent File: Brigada Nimic S01E13 1080p WEB-DL AAC2 0 H 264-playWEB[EZTVx.to].mkv
Torrent Hash: BDEC92EA5865F4AF86A2FE29B61EC72C283AE008
Filesize: 1.59 GB
Released: 18th Jun 2024

File Format: MKV (Matroska)
Resolution: 1920x1080 px
Aspect Ratio: 16:9
Alternate Releases S L
Brigada Nimic S01E13 720p WEB-DL AAC2 0 H 264-playWEB 0 0

Episode Description


Brigada Nimic S01E13 1080p WEB-DL AAC2 0 H 264-playWEB EZTV
Brigada Nimic S1E13 Screenshot


General
Unique ID: 194213835456410809329941299474419155042 (0x921C3960B6A2D184F95D0BA301280062)
Complete name: Brigada Nimic S01E13 1080p WEB-DL AAC2 0 H 264-playWEB.mkv
Format: Matroska
Format version: Version 4
File size: 1.59 GiB
Duration: 44 min 30 s
Overall bit rate: 5 106 kb/s
Frame rate: 25.000 FPS
Writing application: mkvmerge v85.0 ('Shame For You') 64-bit
Writing library: libebml v1.4.5 + libmatroska v1.7.1 / Lavf59.0.100

Video
ID: 1
Format: AVC
Format/Info: Advanced Video Codec
Format profile: Main@L4
Format settings: CABAC / 4 Ref Frames
Format settings, CABAC: Yes
Format settings, Reference frames: 4 frames
Codec ID: V_MPEG4/ISO/AVC
Duration: 44 min 30 s
Bit rate: 5 000 kb/s
Width: 1 920 pixels
Height: 1 080 pixels
Display aspect ratio: 16:9
Frame rate mode: Constant
Frame rate: 25.000 FPS
Color space: YUV
Chroma subsampling: 4:2:0
Bit depth: 8 bits
Scan type: Progressive
Bits/(Pixel*Frame): 0.096
Stream size: 1.55 GiB (97%)
Writing library: x264 core 161
Encoding settings: cabac=1 / ref=3 / deblock=1:-1:-1 / analyse=0x1:0x111 / me=hex / subme=8 / psy=1 / psy_rd=1.00:0.15 / mixed_ref=1 / me_range=16 / chroma_me=1 / trellis=2 / 8x8dct=0 / cqm=0 / deadzone=21,11 / fast_pskip=1 / chroma_qp_offset=-3 / threads=48 / lookahead_threads=8 / sliced_threads=0 / nr=0 / decimate=1 / interlaced=0 / bluray_compat=0 / constrained_intra=0 / bframes=3 / b_pyramid=2 / b_adapt=1 / b_bias=0 / direct=3 / weightb=1 / open_gop=0 / weightp=2 / keyint=75 / keyint_min=7 / scenecut=0 / intra_refresh=0 / rc_lookahead=50 / rc=abr / mbtree=1 / bitrate=5000 / ratetol=1.0 / qcomp=0.60 / qpmin=0 / qpmax=51 / qpstep=4 / vbv_maxrate=6000 / vbv_bufsize=10000 / nal_hrd=none / filler=0 / ip_ratio=1.40 / aq=1:1.00
Default: Yes
Forced: No
Color range: Limited
Color primaries: BT.709
Transfer characteristics: BT.709
Matrix coefficients: BT.709

Audio
ID: 2
Format: AAC LC
Format/Info: Advanced Audio Codec Low Complexity
Codec ID: A_AAC-2
Duration: 44 min 30 s
Bit rate: 128 kb/s
Channel(s): 2 channels
Channel layout: L R
Sampling rate: 44.1 kHz
Frame rate: 43.066 FPS (1024 SPF)
Compression mode: Lossy
Stream size: 40.7 MiB (3%)
Language: Romanian
Default: Yes
Forced: No

ssl  EZTV RSS EZTV Status | EZTV API | DMCA: [email protected]