eztv.wf | eztvstatus.org
Search title:  
TV Packs only
 

Silo S01E07 The Flamekeepers 1080p ATVP WEB-DL DDP5 1 H 264-NTb EZTV

Episode Breakdown
Silo
Silo TV Show S01E07

Season: 1
Episode: 7
Air Date: 9 June, 2023
Download Links
     Torrent Download     Magnet Download
     Anonymous Download
Added 10 months ago by eztv (verified).
Tracker Statistics
Seeds: 86
Peers: 2
Stats generated @ 10:04 on 20th Apr 2024
Torrent Info
Torrent File: Silo.S01E07.The.Flamekeepers.1080p.ATVP.WEB-DL.DDP5.1.H.264-NTb[eztv.re].mkv
Torrent Hash: 89B0CC8428037854E917B28A69CFC008576A0AE5
Filesize: 3.61 GB
Released: 8th Jun 2023

File Format: MKV (Matroska)
Resolution: 1920x1080 px
Aspect Ratio: 16:9
Alternate Releases S L
Silo S01E07 The Flamekeepers 720p ATVP WEB-DL DDP5 1 H 264-NTb 36 4
Silo S01E07 1080p WEB h264-ETHEL 22 2
Silo S01E07 480p x264-mSD 6 3
Silo S01E07 720p HEVC x265-MeGusta 10 5
Silo S01E07 XviD-AFG 1 6
Silo S01E07 1080p HEVC x265-MeGusta 72 3
Silo S01E07 720p x264-FENiX 6 8

Silo S01E07 - The Flamekeepers

Summary:

Bernard seeks Juliette's cooperation as he grows increasingly concerned about the silo's security. Juliette asks her father for a favor.



Silo S01E07 The Flamekeepers 1080p ATVP WEB-DL DDP5 1 H 264-NTb EZTV
Silo S1E7 Screenshot


General
Unique ID: 25952203052513385840135105946537865954 (0x13863666479E93C00F6E45450E2EB2E2)
Complete name: Silo.S01E07.The.Flamekeepers.1080p.ATVP.WEB-DL.DDP5.1.H.264-NTb.mkv
Format: Matroska
Format version: Version 4
File size: 3.61 GiB
Duration: 47 min 11 s
Overall bit rate: 11.0 Mb/s
Writing application: mkvmerge v76.0 ('Celebration') 64-bit
Writing library: libebml v1.4.4 + libmatroska v1.7.1

Video
ID: 1
Format: AVC
Format/Info: Advanced Video Codec
Format profile: High@L4
Format settings: CABAC / 4 Ref Frames
Format settings, CABAC: Yes
Format settings, Reference frames: 4 frames
Codec ID: V_MPEG4/ISO/AVC
Duration: 47 min 11 s
Bit rate: 10.2 Mb/s
Width: 1 920 pixels
Height: 960 pixels
Display aspect ratio: 2.000
Frame rate mode: Constant
Frame rate: 23.976 (24000/1001) FPS
Color space: YUV
Chroma subsampling: 4:2:0
Bit depth: 8 bits
Scan type: Progressive
Bits/(Pixel*Frame): 0.231
Stream size: 3.36 GiB (93%)
Default: Yes
Forced: No
Color range: Limited
Color primaries: BT.709
Transfer characteristics: BT.709
Matrix coefficients: BT.709

Audio
ID: 2
Format: E-AC-3 JOC
Format/Info: Enhanced AC-3 with Joint Object Coding
Commercial name: Dolby Digital Plus with Dolby Atmos
Codec ID: A_EAC3
Duration: 47 min 11 s
Bit rate mode: Constant
Bit rate: 768 kb/s
Channel(s): 6 channels
Channel layout: L R C LFE Ls Rs
Sampling rate: 48.0 kHz
Frame rate: 31.250 FPS (1536 SPF)
Compression mode: Lossy
Stream size: 259 MiB (7%)
Language: English
Service kind: Complete Main
Default: Yes
Forced: No
Complexity index: 16
Number of dynamic objects: 15
Bed channel count: 1 channel
Bed channel configuration: LFE

Text #1
ID: 3
Format: UTF-8
Codec ID: S_TEXT/UTF8
Codec ID/Info: UTF-8 Plain Text
Duration: 45 min 14 s
Bit rate: 64 b/s
Frame rate: 0.215 FPS
Count of elements: 583
Stream size: 21.2 KiB (0%)
Language: English
Default: No
Forced: No

Text #2
ID: 4
Format: UTF-8
Codec ID: S_TEXT/UTF8
Codec ID/Info: UTF-8 Plain Text
Duration: 45 min 57 s
Bit rate: 73 b/s
Frame rate: 0.247 FPS
Count of elements: 682
Stream size: 24.7 KiB (0%)
Title: SDH
Language: English
Default: No
Forced: No

Text #3
ID: 5
Format: UTF-8
Codec ID: S_TEXT/UTF8
Codec ID/Info: UTF-8 Plain Text
Duration: 46 min 13 s
Bit rate: 85 b/s
Frame rate: 0.215 FPS
Count of elements: 596
Stream size: 29.1 KiB (0%)
Language: Arabic
Default: No
Forced: No

Text #4
ID: 6
Format: UTF-8
Codec ID: S_TEXT/UTF8
Codec ID/Info: UTF-8 Plain Text
Duration: 46 min 13 s
Bit rate: 86 b/s
Frame rate: 0.190 FPS
Count of elements: 527
Stream size: 29.2 KiB (0%)
Language: Bulgarian
Default: No
Forced: No

Text #5
ID: 7
Format: UTF-8
Codec ID: S_TEXT/UTF8
Codec ID/Info: UTF-8 Plain Text
Duration: 46 min 13 s
Bit rate: 54 b/s
Frame rate: 0.215 FPS
Count of elements: 596
Stream size: 18.4 KiB (0%)
Title: Chinese (Simplified)
Language: Mandarin (Hans)
Default: No
Forced: No

Text #6
ID: 8
Format: UTF-8
Codec ID: S_TEXT/UTF8
Codec ID/Info: UTF-8 Plain Text
Duration: 46 min 13 s
Bit rate: 56 b/s
Frame rate: 0.215 FPS
Count of elements: 597
Stream size: 19.3 KiB (0%)
Title: Chinese (Traditional)
Language: Mandarin (Hant)
Default: No
Forced: No

Text #7
ID: 9
Format: UTF-8
Codec ID: S_TEXT/UTF8
Codec ID/Info: UTF-8 Plain Text
Duration: 46 min 13 s
Bit rate: 52 b/s
Frame rate: 0.202 FPS
Count of elements: 560
Stream size: 17.9 KiB (0%)
Language: Czech
Default: No
Forced: No

Text #8
ID: 10
Format: UTF-8
Codec ID: S_TEXT/UTF8
Codec ID/Info: UTF-8 Plain Text
Duration: 46 min 13 s
Bit rate: 60 b/s
Frame rate: 0.188 FPS
Count of elements: 521
Stream size: 20.4 KiB (0%)
Language: Danish
Default: No
Forced: No

Text #9
ID: 11
Format: UTF-8
Codec ID: S_TEXT/UTF8
Codec ID/Info: UTF-8 Plain Text
Duration: 46 min 17 s
Bit rate: 56 b/s
Frame rate: 0.211 FPS
Count of elements: 586
Stream size: 19.3 KiB (0%)
Language: German
Default: No
Forced: No

Text #10
ID: 12
Format: UTF-8
Codec ID: S_TEXT/UTF8
Codec ID/Info: UTF-8 Plain Text
Duration: 46 min 13 s
Bit rate: 98 b/s
Frame rate: 0.209 FPS
Count of elements: 580
Stream size: 33.2 KiB (0%)
Language: Greek
Default: No
Forced: No

Text #11
ID: 13
Format: UTF-8
Codec ID: S_TEXT/UTF8
Codec ID/Info: UTF-8 Plain Text
Duration: 46 min 13 s
Bit rate: 62 b/s
Frame rate: 0.216 FPS
Count of elements: 599
Stream size: 21.1 KiB (0%)
Title: Spanish (Latin America)
Language: Spanish (Latin America)
Default: No
Forced: No

Text #12
ID: 14
Format: UTF-8
Codec ID: S_TEXT/UTF8
Codec ID/Info: UTF-8 Plain Text
Duration: 46 min 13 s
Bit rate: 61 b/s
Frame rate: 0.216 FPS
Count of elements: 599
Stream size: 20.9 KiB (0%)
Title: Spanish (Spain)
Language: Spanish (ES)
Default: No
Forced: No

Text #13
ID: 15
Format: UTF-8
Codec ID: S_TEXT/UTF8
Codec ID/Info: UTF-8 Plain Text
Duration: 46 min 13 s
Bit rate: 56 b/s
Frame rate: 0.209 FPS
Count of elements: 581
Stream size: 19.2 KiB (0%)
Language: Estonian
Default: No
Forced: No

Text #14
ID: 16
Format: UTF-8
Codec ID: S_TEXT/UTF8
Codec ID/Info: UTF-8 Plain Text
Duration: 46 min 13 s
Bit rate: 54 b/s
Frame rate: 0.200 FPS
Count of elements: 554
Stream size: 18.4 KiB (0%)
Language: Finnish
Default: No
Forced: No

Text #15
ID: 17
Format: UTF-8
Codec ID: S_TEXT/UTF8
Codec ID/Info: UTF-8 Plain Text
Duration: 46 min 17 s
Bit rate: 57 b/s
Frame rate: 0.220 FPS
Count of elements: 610
Stream size: 19.6 KiB (0%)
Title: French (Canada)
Language: French (CA)
Default: No
Forced: No

Text #16
ID: 18
Format: UTF-8
Codec ID: S_TEXT/UTF8
Codec ID/Info: UTF-8 Plain Text
Duration: 46 min 17 s
Bit rate: 57 b/s
Frame rate: 0.220 FPS
Count of elements: 610
Stream size: 19.6 KiB (0%)
Title: French (France)
Language: French (FR)
Default: No
Forced: No

Text #17
ID: 19
Format: UTF-8
Codec ID: S_TEXT/UTF8
Codec ID/Info: UTF-8 Plain Text
Duration: 46 min 13 s
Bit rate: 88 b/s
Frame rate: 0.215 FPS
Count of elements: 596
Stream size: 30.1 KiB (0%)
Language: Hebrew
Default: No
Forced: No

Text #18
ID: 20
Format: UTF-8
Codec ID: S_TEXT/UTF8
Codec ID/Info: UTF-8 Plain Text
Duration: 46 min 13 s
Bit rate: 165 b/s
Frame rate: 0.215 FPS
Count of elements: 597
Stream size: 56.2 KiB (0%)
Language: Hindi
Default: No
Forced: No

Text #19
ID: 21
Format: UTF-8
Codec ID: S_TEXT/UTF8
Codec ID/Info: UTF-8 Plain Text
Duration: 46 min 13 s
Bit rate: 58 b/s
Frame rate: 0.213 FPS
Count of elements: 592
Stream size: 19.7 KiB (0%)
Language: Hungarian
Default: No
Forced: No

Text #20
ID: 22
Format: UTF-8
Codec ID: S_TEXT/UTF8
Codec ID/Info: UTF-8 Plain Text
Duration: 46 min 13 s
Bit rate: 61 b/s
Frame rate: 0.214 FPS
Count of elements: 593
Stream size: 20.7 KiB (0%)
Language: Indonesian
Default: No
Forced: No

Text #21
ID: 23
Format: UTF-8
Codec ID: S_TEXT/UTF8
Codec ID/Info: UTF-8 Plain Text
Duration: 45 min 37 s
Bit rate: 63 b/s
Frame rate: 0.217 FPS
Count of elements: 593
Stream size: 21.2 KiB (0%)
Language: Italian
Default: No
Forced: No

Text #22
ID: 24
Format: UTF-8
Codec ID: S_TEXT/UTF8
Codec ID/Info: UTF-8 Plain Text
Duration: 46 min 13 s
Bit rate: 51 b/s
Frame rate: 0.222 FPS
Count of elements: 616
Stream size: 17.4 KiB (0%)
Language: Japanese
Default: No
Forced: No

Text #23
ID: 25
Format: UTF-8
Codec ID: S_TEXT/UTF8
Codec ID/Info: UTF-8 Plain Text
Duration: 46 min 13 s
Bit rate: 71 b/s
Frame rate: 0.215 FPS
Count of elements: 596
Stream size: 24.2 KiB (0%)
Language: Korean
Default: No
Forced: No

Text #24
ID: 26
Format: UTF-8
Codec ID: S_TEXT/UTF8
Codec ID/Info: UTF-8 Plain Text
Duration: 46 min 13 s
Bit rate: 63 b/s
Frame rate: 0.215 FPS
Count of elements: 596
Stream size: 21.4 KiB (0%)
Language: Lithuanian
Default: No
Forced: No

Text #25
ID: 27
Format: UTF-8
Codec ID: S_TEXT/UTF8
Codec ID/Info: UTF-8 Plain Text
Duration: 46 min 13 s
Bit rate: 63 b/s
Frame rate: 0.210 FPS
Count of elements: 582
Stream size: 21.5 KiB (0%)
Language: Latvian
Default: No
Forced: No

Text #26
ID: 28
Format: UTF-8
Codec ID: S_TEXT/UTF8
Codec ID/Info: UTF-8 Plain Text
Duration: 46 min 13 s
Bit rate: 59 b/s
Frame rate: 0.214 FPS
Count of elements: 593
Stream size: 20.0 KiB (0%)
Language: Malay
Default: No
Forced: No

Text #27
ID: 29
Format: UTF-8
Codec ID: S_TEXT/UTF8
Codec ID/Info: UTF-8 Plain Text
Duration: 46 min 13 s
Bit rate: 54 b/s
Frame rate: 0.180 FPS
Count of elements: 500
Stream size: 18.6 KiB (0%)
Language: Dutch
Default: No
Forced: No

Text #28
ID: 30
Format: UTF-8
Codec ID: S_TEXT/UTF8
Codec ID/Info: UTF-8 Plain Text
Duration: 46 min 13 s
Bit rate: 52 b/s
Frame rate: 0.171 FPS
Count of elements: 473
Stream size: 17.9 KiB (0%)
Language: Norwegian
Default: No
Forced: No

Text #29
ID: 31
Format: UTF-8
Codec ID: S_TEXT/UTF8
Codec ID/Info: UTF-8 Plain Text
Duration: 46 min 13 s
Bit rate: 55 b/s
Frame rate: 0.200 FPS
Count of elements: 555
Stream size: 18.7 KiB (0%)
Language: Polish
Default: No
Forced: No

Text #30
ID: 32
Format: UTF-8
Codec ID: S_TEXT/UTF8
Codec ID/Info: UTF-8 Plain Text
Duration: 46 min 13 s
Bit rate: 61 b/s
Frame rate: 0.213 FPS
Count of elements: 590
Stream size: 20.7 KiB (0%)
Title: Portuguese
Language: Portuguese
Default: No
Forced: No

Text #31
ID: 33
Format: UTF-8
Codec ID: S_TEXT/UTF8
Codec ID/Info: UTF-8 Plain Text
Duration: 46 min 13 s
Bit rate: 56 b/s
Frame rate: 0.205 FPS
Count of elements: 569
Stream size: 19.2 KiB (0%)
Title: Portuguese (Brazil)
Language: Portuguese (BR)
Default: No
Forced: No

Text #32
ID: 34
Format: UTF-8
Codec ID: S_TEXT/UTF8
Codec ID/Info: UTF-8 Plain Text
Duration: 46 min 13 s
Bit rate: 91 b/s
Frame rate: 0.208 FPS
Count of elements: 576
Stream size: 31.0 KiB (0%)
Language: Russian
Default: No
Forced: No

Text #33
ID: 35
Format: UTF-8
Codec ID: S_TEXT/UTF8
Codec ID/Info: UTF-8 Plain Text
Duration: 46 min 13 s
Bit rate: 56 b/s
Frame rate: 0.213 FPS
Count of elements: 592
Stream size: 19.2 KiB (0%)
Language: Slovak
Default: No
Forced: No

Text #34
ID: 36
Format: UTF-8
Codec ID: S_TEXT/UTF8
Codec ID/Info: UTF-8 Plain Text
Duration: 46 min 13 s
Bit rate: 50 b/s
Frame rate: 0.198 FPS
Count of elements: 548
Stream size: 17.2 KiB (0%)
Language: Slovenian
Default: No
Forced: No

Text #35
ID: 37
Format: UTF-8
Codec ID: S_TEXT/UTF8
Codec ID/Info: UTF-8 Plain Text
Duration: 46 min 13 s
Bit rate: 60 b/s
Frame rate: 0.214 FPS
Count of elements: 593
Stream size: 20.5 KiB (0%)
Language: Swedish
Default: No
Forced: No

Text #36
ID: 38
Format: UTF-8
Codec ID: S_TEXT/UTF8
Codec ID/Info: UTF-8 Plain Text
Duration: 46 min 13 s
Bit rate: 196 b/s
Frame rate: 0.215 FPS
Count of elements: 596
Stream size: 66.7 KiB (0%)
Language: Tamil
Default: No
Forced: No

Text #37
ID: 39
Format: UTF-8
Codec ID: S_TEXT/UTF8
Codec ID/Info: UTF-8 Plain Text
Duration: 46 min 13 s
Bit rate: 183 b/s
Frame rate: 0.215 FPS
Count of elements: 596
Stream size: 62.1 KiB (0%)
Language: Telugu
Default: No
Forced: No

Text #38
ID: 40
Format: UTF-8
Codec ID: S_TEXT/UTF8
Codec ID/Info: UTF-8 Plain Text
Duration: 46 min 13 s
Bit rate: 156 b/s
Frame rate: 0.215 FPS
Count of elements: 595
Stream size: 53.1 KiB (0%)
Language: Thai
Default: No
Forced: No

Text #39
ID: 41
Format: UTF-8
Codec ID: S_TEXT/UTF8
Codec ID/Info: UTF-8 Plain Text
Duration: 46 min 13 s
Bit rate: 61 b/s
Frame rate: 0.208 FPS
Count of elements: 578
Stream size: 20.9 KiB (0%)
Language: Turkish
Default: No
Forced: No

Text #40
ID: 42
Format: UTF-8
Codec ID: S_TEXT/UTF8
Codec ID/Info: UTF-8 Plain Text
Duration: 46 min 13 s
Bit rate: 89 b/s
Frame rate: 0.215 FPS
Count of elements: 597
Stream size: 30.1 KiB (0%)
Language: Ukrainian
Default: No
Forced: No

Text #41
ID: 43
Format: UTF-8
Codec ID: S_TEXT/UTF8
Codec ID/Info: UTF-8 Plain Text
Duration: 46 min 13 s
Bit rate: 79 b/s
Frame rate: 0.214 FPS
Count of elements: 594
Stream size: 26.9 KiB (0%)
Language: Vietnamese
Default: No
Forced: No

Text #42
ID: 44
Format: UTF-8
Codec ID: S_TEXT/UTF8
Codec ID/Info: UTF-8 Plain Text
Duration: 46 min 13 s
Bit rate: 53 b/s
Frame rate: 0.215 FPS
Count of elements: 596
Stream size: 18.2 KiB (0%)
Title: Cantonese (Traditional)
Language: Cantonese (Hant)
Default: No
Forced: No

Menu
00:00:00.000: en:Chapter 1
00:03:53.291: en:Intro
00:05:10.207: en:Chapter 2
ssl  EZTV RSS EZTV Status | EZTV API | DMCA: [email protected]