eztv.wf | eztvstatus.org
Search title:  
TV Packs only
 

Silo S01E07 720p x264-FENiX EZTV

Episode Breakdown
Silo
Silo TV Show S01E07

Season: 1
Episode: 7
Air Date: 9 June, 2023
Download Links
     Torrent Download     Magnet Download
     Anonymous Download
Added 10 months ago by eztv (verified).
Tracker Statistics
Seeds: 6
Peers: 8
Stats generated @ 08:35 on 20th Apr 2024
Torrent Info
Torrent File: Silo.S01E07.720p.x264-FENiX[eztv.re].mkv
Torrent Hash: A3CD0B0865E047A55946F11C043168EE33E248ED
Filesize: 335 MB
Released: 8th Jun 2023

File Format: MKV (Matroska)
Resolution: 1280x720 px
Aspect Ratio: 16:9
Alternate Releases S L
Silo S01E07 The Flamekeepers 720p ATVP WEB-DL DDP5 1 H 264-NTb 36 4
Silo S01E07 The Flamekeepers 1080p ATVP WEB-DL DDP5 1 H 264-NTb 86 2
Silo S01E07 1080p WEB h264-ETHEL 22 2
Silo S01E07 480p x264-mSD 6 3
Silo S01E07 720p HEVC x265-MeGusta 10 5
Silo S01E07 XviD-AFG 1 6
Silo S01E07 1080p HEVC x265-MeGusta 72 3

Silo S01E07 - The Flamekeepers

Summary:

Bernard seeks Juliette's cooperation as he grows increasingly concerned about the silo's security. Juliette asks her father for a favor.



Silo S01E07 720p x264-FENiX EZTV
Silo S1E7 Screenshot


General
Unique ID: 325202309145737798341548949152539827034 (0xF4A7AFBF900E775334C7DA019CD75B5A)
Complete name: Silo.S01E07.720p.x264-FENiX.mkv
Format: Matroska
Format version: Version 4
File size: 335 MiB
Duration: 47 min 11 s
Overall bit rate: 993 kb/s
Movie name: Silo.S01E07
Writing application: Lavf59.16.100
Writing library: Lavf59.16.100
Comment: FENiX-Fri-09-Jun-2023,03:07:14,720p,24,fast,10191172,0,-1
ErrorDetectionType: Per level 1

Video
ID: 1
Format: AVC
Format/Info: Advanced Video Codec
Format profile: [email protected]
Format settings: CABAC / 4 Ref Frames
Format settings, CABAC: Yes
Format settings, Reference frames: 4 frames
Codec ID: V_MPEG4/ISO/AVC
Duration: 47 min 11 s
Bit rate: 526 kb/s
Width: 1 280 pixels
Height: 640 pixels
Display aspect ratio: 2.000
Frame rate mode: Variable
Color space: YUV
Chroma subsampling: 4:2:0
Bit depth: 8 bits
Scan type: Progressive
Stream size: 177 MiB (53%)
Writing library: x264 core 163
Encoding settings: cabac=1 / ref=2 / deblock=1:0:0 / analyse=0x3:0x113 / me=hex / subme=6 / psy=1 / psy_rd=1.00:0.00 / mixed_ref=1 / me_range=16 / chroma_me=1 / trellis=1 / 8x8dct=1 / cqm=0 / deadzone=21,11 / fast_pskip=1 / chroma_qp_offset=-2 / threads=20 / lookahead_threads=3 / sliced_threads=0 / nr=0 / decimate=1 / interlaced=0 / bluray_compat=0 / constrained_intra=0 / bframes=3 / b_pyramid=2 / b_adapt=1 / b_bias=0 / direct=1 / weightb=1 / open_gop=0 / weightp=1 / keyint=250 / keyint_min=23 / scenecut=40 / intra_refresh=0 / rc_lookahead=30 / rc=crf / mbtree=1 / crf=24.0 / qcomp=0.60 / qpmin=0 / qpmax=69 / qpstep=4 / ip_ratio=1.40 / aq=1:1.00
Default: Yes
Forced: No
Color range: Limited
Color primaries: BT.709
Transfer characteristics: BT.709
Matrix coefficients: BT.709

Audio
ID: 2
Format: AC-3
Format/Info: Audio Coding 3
Commercial name: Dolby Digital
Codec ID: A_AC3
Duration: 47 min 11 s
Bit rate mode: Constant
Bit rate: 448 kb/s
Channel(s): 6 channels
Channel layout: L R C LFE Ls Rs
Sampling rate: 48.0 kHz
Frame rate: 31.250 FPS (1536 SPF)
Bit depth: 32 bits
Compression mode: Lossy
Stream size: 151 MiB (45%)
Writing library: Lavc59.18.100 ac3
Language: English
Service kind: Complete Main
Default: Yes
Forced: No

Text
ID: 3
Format: UTF-8
Codec ID: S_TEXT/UTF8
Codec ID/Info: UTF-8 Plain Text
Duration: 46 min 5 s
Language: English
Default: No
Forced: No

Menu
00:00:00.000: 00:00:00.000
00:03:53.291: 00:03:53.291
00:05:10.207: 00:05:10.207
ssl  EZTV RSS EZTV Status | EZTV API | DMCA: [email protected]