eztv.wf | eztvstatus.org
Search title:  
TV Packs only
 

Invasion 2021 S02E04 720p x264-FENiX EZTV

Episode Breakdown
Invasion
Invasion TV Show S02E04

Season: 2
Episode: 4
Air Date: 13 September, 2023
Download Links
     Torrent Download     Magnet Download
     Anonymous Download
Added 2 months ago by eztv (verified).
Tracker Statistics
Seeds: 5
Peers: 2
Stats generated @ 18:45 on 2nd Dec 2023
Torrent Info
Torrent File: Invasion.2021.S02E04.720p.x264-FENiX[eztv.re].mkv
Torrent Hash: A8242942DD8F657AEA592896787C8307625E17CF
Filesize: 405 MB
Released: 12th Sep 2023

File Format: MKV (Matroska)
Resolution: 1280x720 px
Aspect Ratio: 16:9
Alternate Releases S L
Invasion 2021 S02E04 The Tunnel 1080p ATVP WEB-DL DDP5 1 Atmos H 264-FLUX 122 14
Invasion 2021 S02E04 The Tunnel 1080p ATVP WEB-DL DDP5 1 H 264-NTb 12 2
Invasion 2021 S02E04 The Tunnel 720p ATVP WEB-DL DDP5 1 H 264-NTb 24 3
Invasion 2021 S02E04 720p x265-T0PAZ 3 0
Invasion 2021 S02E04 1080p x265-ELiTE 10 0
Invasion 2021 S02E04 1080p WEB h264-ETHEL 3 0
Invasion 2021 S02E04 1080p HEVC x265-MeGusta 37 3

Invasion S02E04 - The Tunnel

Summary:

Jamila's decision to trek the Channel Tunnel puts the group face-to-face with an even deadlier enemy.



Invasion 2021 S02E04 720p x264-FENiX EZTV
Invasion S2E4 Screenshot


General
Unique ID: 209724520468767858147512014594637896390 (0x9DC7793106496340BFEC605C62E11AC6)
Complete name: Invasion.2021.S02E04.720p.x264-FENiX.mkv
Format: Matroska
Format version: Version 4
File size: 405 MiB
Duration: 50 min 6 s
Overall bit rate: 1 131 kb/s
Movie name: Invasion.2021.S02E04
Writing application: Lavf59.16.100
Writing library: Lavf59.16.100
Comment: FENiX-Wed-13-Sep-2023,02:32:16,720p,23,fast,10131747,1,0
ErrorDetectionType: Per level 1

Video
ID: 1
Format: AVC
Format/Info: Advanced Video Codec
Format profile: [email protected]
Format settings: CABAC / 4 Ref Frames
Format settings, CABAC: Yes
Format settings, Reference frames: 4 frames
Codec ID: V_MPEG4/ISO/AVC
Duration: 50 min 6 s
Bit rate: 660 kb/s
Width: 1 280 pixels
Height: 534 pixels
Display aspect ratio: 2.40:1
Frame rate mode: Variable
Color space: YUV
Chroma subsampling: 4:2:0
Bit depth: 8 bits
Scan type: Progressive
Stream size: 237 MiB (58%)
Writing library: x264 core 163
Encoding settings: cabac=1 / ref=2 / deblock=1:0:0 / analyse=0x3:0x113 / me=hex / subme=6 / psy=1 / psy_rd=1.00:0.00 / mixed_ref=1 / me_range=16 / chroma_me=1 / trellis=1 / 8x8dct=1 / cqm=0 / deadzone=21,11 / fast_pskip=1 / chroma_qp_offset=-2 / threads=17 / lookahead_threads=2 / sliced_threads=0 / nr=0 / decimate=1 / interlaced=0 / bluray_compat=0 / constrained_intra=0 / bframes=3 / b_pyramid=2 / b_adapt=1 / b_bias=0 / direct=1 / weightb=1 / open_gop=0 / weightp=1 / keyint=250 / keyint_min=23 / scenecut=40 / intra_refresh=0 / rc_lookahead=30 / rc=crf / mbtree=1 / crf=23.0 / qcomp=0.60 / qpmin=0 / qpmax=69 / qpstep=4 / ip_ratio=1.40 / aq=1:1.00
Default: Yes
Forced: No
Color range: Limited
Color primaries: BT.709
Transfer characteristics: BT.709
Matrix coefficients: BT.709

Audio
ID: 2
Format: AC-3
Format/Info: Audio Coding 3
Commercial name: Dolby Digital
Codec ID: A_AC3
Duration: 50 min 6 s
Bit rate mode: Constant
Bit rate: 448 kb/s
Channel(s): 6 channels
Channel layout: L R C LFE Ls Rs
Sampling rate: 48.0 kHz
Frame rate: 31.250 FPS (1536 SPF)
Bit depth: 32 bits
Compression mode: Lossy
Stream size: 161 MiB (40%)
Writing library: Lavc59.18.100 ac3
Language: English
Service kind: Complete Main
Default: Yes
Forced: No

Text #1
ID: 3
Format: UTF-8
Codec ID: S_TEXT/UTF8
Codec ID/Info: UTF-8 Plain Text
Duration: 47 min 3 s
Language: English
Default: No
Forced: Yes

Text #2
ID: 4
Format: UTF-8
Codec ID: S_TEXT/UTF8
Codec ID/Info: UTF-8 Plain Text
Duration: 47 min 31 s
Language: English
Default: No
Forced: No
ssl  EZTV RSS EZTV Status | EZTV API | DMCA: [email protected]