eztv.wf | eztvstatus.org
Search title:  
TV Packs only
 

Invasion 2021 S02E04 720p x265-T0PAZ EZTV

Episode Breakdown
Invasion
Invasion TV Show S02E04

Season: 2
Episode: 4
Air Date: 13 September, 2023
Download Links
     Torrent Download     Magnet Download
     Anonymous Download
Added 5 months ago by eztv (verified).
Tracker Statistics
Seeds: 7
Peers: 0
Stats generated @ 03:23 on 29th Feb 2024
Torrent Info
Torrent File: Invasion.2021.S02E04.720p.x265-T0PAZ[eztv.re].mkv
Torrent Hash: 563CFDFFE14481F54C0518C078F242FF20853BED
Filesize: 295 MB
Released: 12th Sep 2023

File Format: MKV (Matroska)
Resolution: 1280x720 px
Aspect Ratio: 16:9
Alternate Releases S L
Invasion 2021 S02E04 The Tunnel 1080p ATVP WEB-DL DDP5 1 Atmos H 264-FLUX 56 2
Invasion 2021 S02E04 The Tunnel 1080p ATVP WEB-DL DDP5 1 H 264-NTb 7 6
Invasion 2021 S02E04 The Tunnel 720p ATVP WEB-DL DDP5 1 H 264-NTb 15 3
Invasion 2021 S02E04 720p x264-FENiX 10 2
Invasion 2021 S02E04 1080p x265-ELiTE 6 0
Invasion 2021 S02E04 1080p WEB h264-ETHEL 1 11
Invasion 2021 S02E04 1080p HEVC x265-MeGusta 22 1

Invasion S02E04 - The Tunnel

Summary:

Jamila's decision to trek the Channel Tunnel puts the group face-to-face with an even deadlier enemy.



Invasion 2021 S02E04 720p x265-T0PAZ EZTV
Invasion S2E4 Screenshot


General
Unique ID: 78939227317240299934847151862016292045 (0x3B6324651A5186DBBF2B7F280202B4CD)
Complete name: Invasion.2021.S02E04.720p.x265-T0PAZ.mkv
Format: Matroska
Format version: Version 4
File size: 295 MiB
Duration: 50 min 6 s
Overall bit rate: 824 kb/s
Movie name: Invasion.2021.S02E04
Writing application: Lavf59.16.100
Writing library: Lavf59.16.100
Comment: T0PAZ-Wed-13-Sep-2023,02:37:28,720p,22,faster,10131747,1,0
ErrorDetectionType: Per level 1

Video
ID: 1
Format: HEVC
Format/Info: High Efficiency Video Coding
Format profile: [email protected]@Main
Codec ID: V_MPEGH/ISO/HEVC
Duration: 50 min 6 s
Bit rate: 360 kb/s
Width: 1 280 pixels
Height: 534 pixels
Display aspect ratio: 2.40:1
Frame rate mode: Variable
Original frame rate: 23.976 FPS
Color space: YUV
Chroma subsampling: 4:2:0 (Type 2)
Bit depth: 8 bits
Stream size: 129 MiB (44%)
Writing library: x265 0.0:[Linux][GCC 4.8.5][64 bit] 8bit
Encoding settings: cpuid=1111039 / frame-threads=4 / wpp / no-pmode / no-pme / no-psnr / no-ssim / log-level=2 / input-csp=1 / input-res=1280x534 / interlace=0 / total-frames=0 / level-idc=0 / high-tier=1 / uhd-bd=0 / ref=2 / no-allow-non-conformance / no-repeat-headers / annexb / no-aud / no-hrd / info / hash=0 / no-temporal-layers / open-gop / min-keyint=23 / keyint=250 / gop-lookahead=0 / bframes=4 / b-adapt=0 / b-pyramid / bframe-bias=0 / rc-lookahead=15 / lookahead-slices=0 / scenecut=40 / hist-scenecut=0 / radl=0 / no-splice / no-intra-refresh / ctu=64 / min-cu-size=8 / no-rect / no-amp / max-tu-size=32 / tu-inter-depth=1 / tu-intra-depth=1 / limit-tu=0 / rdoq-level=0 / dynamic-rd=0.00 / no-ssim-rd / signhide / no-tskip / nr-intra=0 / nr-inter=0 / no-constrained-intra / strong-intra-smoothing / max-merge=2 / limit-refs=3 / no-limit-modes / me=1 / subme=2 / merange=57 / temporal-mvp / no-frame-dup / no-hme / weightp / no-weightb / no-analyze-src-pics / deblock=0:0 / sao / no-sao-non-deblock / rd=2 / selective-sao=4 / early-skip / rskip / fast-intra / no-tskip-fast / no-cu-lossless / no-b-intra / no-splitrd-skip / rdpenalty=0 / psy-rd=2.00 / psy-rdoq=0.00 / no-rd-refine / no-lossless / cbqpoffs=0 / crqpoffs=0 / rc=crf / crf=22.0 / qcomp=0.60 / qpstep=4 / stats-write=0 / stats-read=0 / ipratio=1.40 / pbratio=1.30 / aq-mode=2 / aq-strength=1.00 / cutree / zone-count=0 / no-strict-cbr / qg-size=32 / no-rc-grain / qpmax=69 / qpmin=0 / no-const-vbv / sar=1 / overscan=0 / videoformat=5 / range=0 / colorprim=1 / transfer=1 / colormatrix=1 / chromaloc=1 / chromaloc-top=2 / chromaloc-bottom=2 / display-window=0 / cll=0,0 / min-luma=0 / max-luma=255 / log2-max-poc-lsb=8 / vui-timing-info / vui-hrd-info / slices=1 / no-opt-qp-pps / no-opt-ref-list-length-pps / no-multi-pass-opt-rps / scenecut-bias=0.05 / hist-threshold=0.01 / no-opt-cu-delta-qp / no-aq-motion / no-hdr10 / no-hdr10-opt / no-dhdr10-opt / no-idr-recovery-sei / analysis-reuse-level=0 / analysis-save-reuse-level=0 / analysis-load-reuse-level=0 / scale-factor=0 / refine-intra=0 / refine-inter=0 / refine-mv=1 / refine-ctu-distortion=0 / no-limit-sao / ctu-info=0 / no-lowpass-dct / refine-analysis-type=0 / copy-pic=1 / max-ausize-factor=1.0 / no-dynamic-refine / no-single-sei / no-hevc-aq / no-svt / no-field / qp-adaptation-range=1.00 / no-scenecut-aware-qpconformance-window-offsets / right=0 / bottom=0 / decoder-max-rate=0
Default: Yes
Forced: No
Color range: Limited
Color primaries: BT.709
Transfer characteristics: BT.709
Matrix coefficients: BT.709

Audio
ID: 2
Format: AC-3
Format/Info: Audio Coding 3
Commercial name: Dolby Digital
Codec ID: A_AC3
Duration: 50 min 6 s
Bit rate mode: Constant
Bit rate: 448 kb/s
Channel(s): 6 channels
Channel layout: L R C LFE Ls Rs
Sampling rate: 48.0 kHz
Frame rate: 31.250 FPS (1536 SPF)
Bit depth: 32 bits
Compression mode: Lossy
Stream size: 161 MiB (54%)
Writing library: Lavc59.18.100 ac3
Language: English
Service kind: Complete Main
Default: Yes
Forced: No

Text #1
ID: 3
Format: UTF-8
Codec ID: S_TEXT/UTF8
Codec ID/Info: UTF-8 Plain Text
Duration: 47 min 3 s
Language: English
Default: No
Forced: Yes

Text #2
ID: 4
Format: UTF-8
Codec ID: S_TEXT/UTF8
Codec ID/Info: UTF-8 Plain Text
Duration: 47 min 31 s
Language: English
Default: No
Forced: No
ssl  EZTV RSS EZTV Status | EZTV API | DMCA: [email protected]