eztv.wf | eztvstatus.org
Search title:  
TV Packs only
 

Knuckles S01E01 The Warrior 1080p PMTP WEB-DL DDP5 1 x264-NTb EZTV

Episode Breakdown
Knuckles
Knuckles TV Show S01E01

Season: 1
Episode: 1
Air Date: 26 April, 2024
Download Links
     Torrent Download     Magnet Download
     Anonymous Download
Added 1 month ago by eztv (verified).
Tracker Statistics
Seeds: 10
Peers: 2
Stats generated @ 16:12 on 17th Jun 2024
Torrent Info
Torrent File: Knuckles S01E01 The Warrior 1080p PMTP WEB-DL DDP5 1 x264-NTb[EZTVx.to].mkv
Torrent Hash: A48ED48E2CB84F5EFEE5D95DF7EB622B49FFB1F5
Filesize: 1.22 GB
Released: 27th Apr 2024

File Format: MKV (Matroska)
Resolution: 1920x1080 px
Aspect Ratio: 16:9
Alternate Releases S L
Knuckles S01E01 1080p WEB H264-SuccessfulCrab 103 28
Knuckles S01E01 The Warrior 720p PMTP WEB-DL DDP5 1 x264-NTb 8 3
Knuckles S01E01 The Warrior 1080p AMZN WEB-DL DDP5 1 H 264-NTb 13 3
Knuckles S01E01 480p x264-mSD 7 2

Knuckles S01E01 - The Warrior

Summary:

Knuckles struggles to adapt to his new life in Green Hills.



Knuckles S01E01 The Warrior 1080p PMTP WEB-DL DDP5 1 x264-NTb EZTV
Knuckles S1E1 Screenshot


General
Unique ID: 186836487962310923543798228455495825431 (0x8C8F66105B30BB2F479A738F516BF817)
Complete name: Knuckles S01E01 The Warrior 1080p PMTP WEB-DL DDP5 1 x264-NTb.mkv
Format: Matroska
Format version: Version 4
File size: 1.22 GiB
Duration: 33 min 59 s
Overall bit rate: 5 154 kb/s
Frame rate: 23.976 FPS
Writing application: mkvmerge v81.0 ('Milliontown') 64-bit
Writing library: libebml v1.4.4 + libmatroska v1.7.1

Video
ID: 1
Format: AVC
Format/Info: Advanced Video Codec
Format profile: High@L4
Format settings: CABAC / 4 Ref Frames
Format settings, CABAC: Yes
Format settings, Reference frames: 4 frames
Codec ID: V_MPEG4/ISO/AVC
Duration: 33 min 59 s
Bit rate: 4 500 kb/s
Width: 1 920 pixels
Height: 1 080 pixels
Display aspect ratio: 16:9
Frame rate mode: Constant
Frame rate: 23.976 (24000/1001) FPS
Color space: YUV
Chroma subsampling: 4:2:0
Bit depth: 8 bits
Scan type: Progressive
Bits/(Pixel*Frame): 0.091
Stream size: 1.04 GiB (85%)
Writing library: x264 core 164 r3107 a8b68eb
Encoding settings: cabac=1 / ref=4 / deblock=1:0:0 / analyse=0x3:0x113 / me=hex / subme=8 / psy=1 / psy_rd=1.00:0.00 / mixed_ref=1 / me_range=16 / chroma_me=1 / trellis=2 / 8x8dct=1 / cqm=0 / deadzone=21,11 / fast_pskip=1 / chroma_qp_offset=-2 / threads=12 / lookahead_threads=2 / sliced_threads=0 / nr=0 / decimate=1 / interlaced=0 / bluray_compat=0 / stitchable=1 / constrained_intra=0 / bframes=3 / b_pyramid=2 / b_adapt=1 / b_bias=0 / direct=3 / weightb=1 / open_gop=0 / weightp=2 / keyint=48 / keyint_min=4 / scenecut=0 / intra_refresh=0 / rc_lookahead=48 / rc=2pass / mbtree=1 / bitrate=4500 / ratetol=1.0 / qcomp=0.60 / qpmin=0 / qpmax=69 / qpstep=4 / cplxblur=20.0 / qblur=0.5 / vbv_maxrate=5400 / vbv_bufsize=4500 / nal_hrd=none / filler=0 / ip_ratio=1.40 / aq=1:1.00
Default: Yes
Forced: No
Color range: Limited
Color primaries: BT.709
Matrix coefficients: BT.709

Audio
ID: 2
Format: E-AC-3 JOC
Format/Info: Enhanced AC-3 with Joint Object Coding
Commercial name: Dolby Digital Plus with Dolby Atmos
Codec ID: A_EAC3
Duration: 33 min 59 s
Bit rate mode: Constant
Bit rate: 768 kb/s
Channel(s): 6 channels
Channel layout: L R C LFE Ls Rs
Sampling rate: 48.0 kHz
Frame rate: 31.250 FPS (1536 SPF)
Compression mode: Lossy
Stream size: 187 MiB (15%)
Language: English (US)
Service kind: Complete Main
Default: Yes
Forced: No
Complexity index: 16
Number of dynamic objects: 15
Bed channel count: 1 channel
Bed channel configuration: LFE

Text #1
ID: 3
Format: UTF-8
Codec ID: S_TEXT/UTF8
Codec ID/Info: UTF-8 Plain Text
Duration: 32 min 31 s
Bit rate: 84 b/s
Frame rate: 0.325 FPS
Count of elements: 635
Stream size: 20.1 KiB (0%)
Language: English (US)
Default: No
Forced: No

Text #2
ID: 4
Format: UTF-8
Codec ID: S_TEXT/UTF8
Codec ID/Info: UTF-8 Plain Text
Duration: 32 min 44 s
Bit rate: 106 b/s
Frame rate: 0.397 FPS
Count of elements: 781
Stream size: 25.5 KiB (0%)
Title: SDH
Language: English (US)
Default: No
Forced: No

Text #3
ID: 5
Format: UTF-8
Codec ID: S_TEXT/UTF8
Codec ID/Info: UTF-8 Plain Text
Duration: 32 min 36 s
Bit rate: 73 b/s
Frame rate: 0.249 FPS
Count of elements: 487
Stream size: 17.5 KiB (0%)
Language: Spanish (MX)
Default: No
Forced: No

Menu
00:00:00.000: en:Chapter 1
00:14:04.117: en:Chapter 2
00:20:00.450: en:Chapter 3
00:30:40.172: en:Chapter 4

ssl  EZTV RSS EZTV Status | EZTV API | DMCA: [email protected]