eztv.wf | eztvstatus.org
Search title:  
TV Packs only
 

Knuckles S01E01 The Warrior 1080p AMZN WEB-DL DDP5 1 H 264-NTb EZTV

Episode Breakdown
Knuckles
Knuckles TV Show S01E01

Season: 1
Episode: 1
Air Date: 26 April, 2024
Download Links
     Torrent Download     Magnet Download
     Anonymous Download
Added 1 month ago by eztv (verified).
Tracker Statistics
Seeds: 12
Peers: 6
Stats generated @ 04:13 on 18th Jun 2024
Torrent Info
Torrent File: Knuckles S01E01 The Warrior 1080p AMZN WEB-DL DDP5 1 H 264-NTb[EZTVx.to].mkv
Torrent Hash: 679BDB02E30BE2A089EE08F9D74ED8E8C3D0641D
Filesize: 2.37 GB
Released: 27th Apr 2024

File Format: MKV (Matroska)
Resolution: 1920x1080 px
Aspect Ratio: 16:9
Alternate Releases S L
Knuckles S01E01 1080p WEB H264-SuccessfulCrab 101 26
Knuckles S01E01 The Warrior 720p PMTP WEB-DL DDP5 1 x264-NTb 6 1
Knuckles S01E01 The Warrior 1080p PMTP WEB-DL DDP5 1 x264-NTb 11 2
Knuckles S01E01 480p x264-mSD 2 3

Knuckles S01E01 - The Warrior

Summary:

Knuckles struggles to adapt to his new life in Green Hills.



Knuckles S01E01 The Warrior 1080p AMZN WEB-DL DDP5 1 H 264-NTb EZTV
Knuckles S1E1 Screenshot


General
Unique ID: 253240003285179513540537824070967235502 (0xBE844023ACED87DEADB5BC816E3813AE)
Complete name: Knuckles S01E01 The Warrior 1080p AMZN WEB-DL DDP5 1 H 264-NTb.mkv
Format: Matroska
Format version: Version 4
File size: 2.37 GiB
Duration: 34 min 5 s
Overall bit rate: 9 957 kb/s
Frame rate: 23.976 FPS
Writing application: mkvmerge v81.0 ('Milliontown') 64-bit
Writing library: libebml v1.4.4 + libmatroska v1.7.1

Video
ID: 1
Format: AVC
Format/Info: Advanced Video Codec
Format profile: High@L4
Format settings: CABAC / 4 Ref Frames
Format settings, CABAC: Yes
Format settings, Reference frames: 4 frames
Codec ID: V_MPEG4/ISO/AVC
Duration: 33 min 48 s
Bit rate mode: Constant
Bit rate: 9 264 kb/s
Nominal bit rate: 10 000 kb/s
Width: 1 920 pixels
Height: 800 pixels
Display aspect ratio: 2.40:1
Frame rate mode: Constant
Frame rate: 23.976 (24000/1001) FPS
Color space: YUV
Chroma subsampling: 4:2:0
Bit depth: 8 bits
Scan type: Progressive
Bits/(Pixel*Frame): 0.252
Stream size: 2.19 GiB (92%)
Default: Yes
Forced: No
Color range: Limited
Color primaries: BT.709
Transfer characteristics: BT.709
Matrix coefficients: BT.709

Audio
ID: 2
Format: E-AC-3 JOC
Format/Info: Enhanced AC-3 with Joint Object Coding
Commercial name: Dolby Digital Plus with Dolby Atmos
Codec ID: A_EAC3
Duration: 34 min 5 s
Bit rate mode: Constant
Bit rate: 768 kb/s
Channel(s): 6 channels
Channel layout: L R C LFE Ls Rs
Sampling rate: 48.0 kHz
Frame rate: 31.250 FPS (1536 SPF)
Compression mode: Lossy
Stream size: 187 MiB (8%)
Language: English
Service kind: Complete Main
Default: Yes
Forced: No
Complexity index: 16
Number of dynamic objects: 15
Bed channel count: 1 channel
Bed channel configuration: LFE

Text #1
ID: 3
Format: UTF-8
Codec ID: S_TEXT/UTF8
Codec ID/Info: UTF-8 Plain Text
Duration: 32 min 37 s
Bit rate: 83 b/s
Frame rate: 0.324 FPS
Count of elements: 635
Stream size: 20.0 KiB (0%)
Language: English (US)
Default: No
Forced: No

Text #2
ID: 4
Format: UTF-8
Codec ID: S_TEXT/UTF8
Codec ID/Info: UTF-8 Plain Text
Duration: 32 min 50 s
Bit rate: 105 b/s
Frame rate: 0.396 FPS
Count of elements: 781
Stream size: 25.3 KiB (0%)
Title: SDH
Language: English (US)
Default: No
Forced: No

Text #3
ID: 5
Format: UTF-8
Codec ID: S_TEXT/UTF8
Codec ID/Info: UTF-8 Plain Text
Duration: 32 min 42 s
Bit rate: 72 b/s
Frame rate: 0.283 FPS
Count of elements: 555
Stream size: 17.4 KiB (0%)
Language: Spanish
Default: No
Forced: No

Menu
00:00:00.000: en:Chapter 1
00:14:04.117: en:Chapter 2
00:20:00.450: en:Chapter 3
00:30:40.172: en:Chapter 4

ssl  EZTV RSS EZTV Status | EZTV API | DMCA: [email protected]