eztv.wf | eztvstatus.org
Search title:  
TV Packs only
 

Criminal Minds S17E01 Gold Star REPACK 1080p AMZN WEB-DL DDP5 1 Atmos H 264-FLUX EZTV

Episode Breakdown
Criminal Minds
Criminal Minds TV Show S17E01

Season: 17
Episode: 1
Air Date: 6 June, 2024
Download Links
     Torrent Download     Magnet Download
     Anonymous Download
Added 1 month ago by eztv (verified).
Tracker Statistics
Seeds: 40
Peers: 11
Stats generated @ 16:58 on 14th Jul 2024
Torrent Info
Torrent File: Criminal Minds S17E01 Gold Star REPACK 1080p AMZN WEB-DL DDP5 1 Atmos H 264-FLUX[EZTVx.to].mkv
Torrent Hash: D5426B45B1F03465E7CB95B305570CC9975636EE
Filesize: 2.24 GB
Released: 6th Jun 2024

File Format: MKV (Matroska)
Resolution: 1920x1080 px
Aspect Ratio: 16:9
Alternate Releases S L
Criminal Minds S17E01 1080p WEB h264-ETHEL 184 46
Criminal Minds S17E01 1080p HEVC x265-MeGusta 47 32
Criminal Minds S17E01 Gold Star REPACK 720p AMZN WEB-DL DDP5 1 Atmos H 264-FLUX 50 15
Criminal Minds S17E01 Gold Star 1080p AMZN WEB-DL DDP5 1 H 264-FLUX 3 2
Criminal Minds S17E01 XviD-AFG 22 6
Criminal Minds S17E01 720p x264-FENiX 10 3
Criminal Minds S17E01 1080p x265-ELiTE 23 6

Criminal Minds S17E01 - Gold Star

Summary:

The BAU wrestles with the death of Douglas Baily and Elias Voit's arrest. Rossi is haunted by visions of Voit. Lewis and Garcia vent to one another about their recent breakups. Prentiss uncovers a series of brutal killings linked by a specific calling card: a bullet casing engraved with a gold star. The Team learns that FBI Director Ray Madison has made a deal with Voit. In response, Rossi and Prentiss devise a plan to gain leverage over Voit to ensure he remains imprisoned.



Criminal Minds S17E01 Gold Star REPACK 1080p AMZN WEB-DL DDP5 1 Atmos H 264-FLUX EZTV
Criminal Minds S17E1 Screenshot


General
Unique ID: 312913568593878624721521614163071281075 (0xEB68F60FA1665D100B229596005127B3)
Complete name: Criminal Minds S17E01 Gold Star REPACK 1080p AMZN WEB-DL DDP5 1 Atmos H 264-FLUX.mkv
Format: Matroska
Format version: Version 4
File size: 2.24 GiB
Duration: 52 min 17 s
Overall bit rate: 6 136 kb/s
Frame rate: 23.976 FPS
Writing application: mkvmerge v79.0 ('Funeral Pyres') 64-bit
Writing library: libebml v1.4.4 + libmatroska v1.7.1

Video
ID: 1
Format: AVC
Format/Info: Advanced Video Codec
Format profile: High@L4
Format settings: CABAC / 4 Ref Frames
Format settings, CABAC: Yes
Format settings, Reference frames: 4 frames
Codec ID: V_MPEG4/ISO/AVC
Duration: 52 min 17 s
Bit rate mode: Constant
Bit rate: 5 365 kb/s
Nominal bit rate: 10 000 kb/s
Width: 1 920 pixels
Height: 816 pixels
Display aspect ratio: 2.35:1
Frame rate mode: Constant
Frame rate: 23.976 (24000/1001) FPS
Color space: YUV
Chroma subsampling: 4:2:0
Bit depth: 8 bits
Scan type: Progressive
Bits/(Pixel*Frame): 0.143
Stream size: 1.96 GiB (87%)
Language: English (US)
Default: Yes
Forced: No
Color range: Limited
Color primaries: BT.709
Transfer characteristics: BT.709
Matrix coefficients: BT.709

Audio
ID: 2
Format: E-AC-3 JOC
Format/Info: Enhanced AC-3 with Joint Object Coding
Commercial name: Dolby Digital Plus with Dolby Atmos
Codec ID: A_EAC3
Duration: 52 min 17 s
Bit rate mode: Constant
Bit rate: 768 kb/s
Channel(s): 6 channels
Channel layout: L R C LFE Ls Rs
Sampling rate: 48.0 kHz
Frame rate: 31.250 FPS (1536 SPF)
Compression mode: Lossy
Delay relative to video: 20 ms
Stream size: 287 MiB (13%)
Language: English (US)
Service kind: Complete Main
Default: Yes
Forced: No
Complexity index: 16
Number of dynamic objects: 15
Bed channel count: 1 channel
Bed channel configuration: LFE

Text #1
ID: 3
Format: UTF-8
Codec ID: S_TEXT/UTF8
Codec ID/Info: UTF-8 Plain Text
Duration: 50 min 59 s
Bit rate: 87 b/s
Frame rate: 0.317 FPS
Count of elements: 970
Stream size: 32.9 KiB (0%)
Language: English (US)
Default: No
Forced: No

Text #2
ID: 4
Format: UTF-8
Codec ID: S_TEXT/UTF8
Codec ID/Info: UTF-8 Plain Text
Duration: 51 min 53 s
Bit rate: 91 b/s
Frame rate: 0.345 FPS
Count of elements: 1074
Stream size: 34.7 KiB (0%)
Title: SDH
Language: English (US)
Default: No
Forced: No

Menu
00:00:00.020: en:Chapter 01
00:51:17.020: en:Credits
ssl  EZTV RSS EZTV Status | EZTV API | DMCA: [email protected]