eztv.wf | eztvstatus.org
Search title:  
TV Packs only
 

Criminal Minds S17E01 720p x264-FENiX EZTV

Episode Breakdown
Criminal Minds
Criminal Minds TV Show S17E01

Season: 17
Episode: 1
Air Date: 6 June, 2024
Download Links
     Torrent Download     Magnet Download
     Anonymous Download
Added 1 month ago by eztv (verified).
Tracker Statistics
Seeds: 12
Peers: 4
Stats generated @ 15:15 on 14th Jul 2024
Torrent Info
Torrent File: Criminal Minds S17E01 720p x264-FENiX[EZTVx.to].mkv
Torrent Hash: D3323D0458D5B928578EB71356DA2A7C96580C75
Filesize: 451 MB
Released: 6th Jun 2024

File Format: MKV (Matroska)
Resolution: 1280x720 px
Aspect Ratio: 16:9
Alternate Releases S L
Criminal Minds S17E01 1080p WEB h264-ETHEL 183 35
Criminal Minds S17E01 1080p HEVC x265-MeGusta 44 20
Criminal Minds S17E01 Gold Star REPACK 720p AMZN WEB-DL DDP5 1 Atmos H 264-FLUX 48 17
Criminal Minds S17E01 Gold Star REPACK 1080p AMZN WEB-DL DDP5 1 Atmos H 264-FLUX 34 12
Criminal Minds S17E01 Gold Star 1080p AMZN WEB-DL DDP5 1 H 264-FLUX 3 4
Criminal Minds S17E01 XviD-AFG 20 8
Criminal Minds S17E01 1080p x265-ELiTE 23 5

Criminal Minds S17E01 - Gold Star

Summary:

The BAU wrestles with the death of Douglas Baily and Elias Voit's arrest. Rossi is haunted by visions of Voit. Lewis and Garcia vent to one another about their recent breakups. Prentiss uncovers a series of brutal killings linked by a specific calling card: a bullet casing engraved with a gold star. The Team learns that FBI Director Ray Madison has made a deal with Voit. In response, Rossi and Prentiss devise a plan to gain leverage over Voit to ensure he remains imprisoned.



Criminal Minds S17E01 720p x264-FENiX EZTV
Criminal Minds S17E1 Screenshot


General
Unique ID: 194068560017167895959914576581698170887 (0x92003EBEE19CF487E8C78896FFFEB007)
Complete name: Criminal Minds S17E01 720p x264-FENiX.mkv
Format: Matroska
Format version: Version 4
File size: 451 MiB
Duration: 52 min 17 s
Overall bit rate: 1 207 kb/s
Frame rate: 23.976 FPS
Movie name: Criminal.Minds.S17E01
Writing application: Lavf60.16.100
Writing library: Lavf60.16.100
Comment: FENiX-Thu-06-Jun-2024,15:55:31,720p,22,fast,N,5365331,1920,816,2.35
ErrorDetectionType: Per level 1

Video
ID: 1
Format: AVC
Format/Info: Advanced Video Codec
Format profile: [email protected]
Format settings: CABAC / 4 Ref Frames
Format settings, CABAC: Yes
Format settings, Reference frames: 4 frames
Codec ID: V_MPEG4/ISO/AVC
Duration: 52 min 17 s
Bit rate: 735 kb/s
Width: 1 280 pixels
Height: 544 pixels
Display aspect ratio: 2.35:1
Frame rate mode: Constant
Frame rate: 23.976 (24000/1001) FPS
Color space: YUV
Chroma subsampling: 4:2:0
Bit depth: 8 bits
Scan type: Progressive
Bits/(Pixel*Frame): 0.044
Stream size: 275 MiB (61%)
Writing library: x264 core 164
Encoding settings: cabac=1 / ref=2 / deblock=1:0:0 / analyse=0x3:0x113 / me=hex / subme=6 / psy=1 / psy_rd=1.00:0.00 / mixed_ref=1 / me_range=16 / chroma_me=1 / trellis=1 / 8x8dct=1 / cqm=0 / deadzone=21,11 / fast_pskip=1 / chroma_qp_offset=-2 / threads=17 / lookahead_threads=2 / sliced_threads=0 / nr=0 / decimate=1 / interlaced=0 / bluray_compat=0 / constrained_intra=0 / bframes=3 / b_pyramid=2 / b_adapt=1 / b_bias=0 / direct=1 / weightb=1 / open_gop=0 / weightp=1 / keyint=250 / keyint_min=23 / scenecut=40 / intra_refresh=0 / rc_lookahead=30 / rc=crf / mbtree=1 / crf=22.0 / qcomp=0.60 / qpmin=0 / qpmax=69 / qpstep=4 / ip_ratio=1.40 / aq=1:1.00
Default: Yes
Forced: No
Color range: Limited
Color primaries: BT.709
Transfer characteristics: BT.709
Matrix coefficients: BT.709

Audio
ID: 2
Format: AC-3
Format/Info: Audio Coding 3
Commercial name: Dolby Digital
Codec ID: A_AC3
Duration: 52 min 17 s
Bit rate mode: Constant
Bit rate: 448 kb/s
Channel(s): 6 channels
Channel layout: L R C LFE Ls Rs
Sampling rate: 48.0 kHz
Frame rate: 31.250 FPS (1536 SPF)
Bit depth: 32 bits
Compression mode: Lossy
Stream size: 168 MiB (37%)
Writing library: Lavc60.31.102 ac3
Language: English
Service kind: Complete Main
Default: Yes
Forced: No

Text
ID: 3
Format: UTF-8
Codec ID: S_TEXT/UTF8
Codec ID/Info: UTF-8 Plain Text
Duration: 51 min 58 s
Language: English
Default: No
Forced: No
ssl  EZTV RSS EZTV Status | EZTV API | DMCA: [email protected]