eztv.wf | eztvstatus.org
Search title:  
TV Packs only
 

Criminal Minds S17E01 1080p x265-ELiTE EZTV

Episode Breakdown
Criminal Minds
Criminal Minds TV Show S17E01

Season: 17
Episode: 1
Air Date: 6 June, 2024
Download Links
     Torrent Download     Magnet Download
     Anonymous Download
Added 1 month ago by eztv (verified).
Tracker Statistics
Seeds: 23
Peers: 6
Stats generated @ 16:50 on 14th Jul 2024
Torrent Info
Torrent File: Criminal Minds S17E01 1080p x265-ELiTE[EZTVx.to].mkv
Torrent Hash: 9776F0851EF7A5866F600BB63DB044263E3C7C54
Filesize: 398 MB
Released: 6th Jun 2024

File Format: MKV (Matroska)
Resolution: 1920x1080 px
Aspect Ratio: 16:9
Alternate Releases S L
Criminal Minds S17E01 1080p WEB h264-ETHEL 184 46
Criminal Minds S17E01 1080p HEVC x265-MeGusta 47 32
Criminal Minds S17E01 Gold Star REPACK 720p AMZN WEB-DL DDP5 1 Atmos H 264-FLUX 50 15
Criminal Minds S17E01 Gold Star REPACK 1080p AMZN WEB-DL DDP5 1 Atmos H 264-FLUX 40 11
Criminal Minds S17E01 Gold Star 1080p AMZN WEB-DL DDP5 1 H 264-FLUX 3 2
Criminal Minds S17E01 XviD-AFG 22 6
Criminal Minds S17E01 720p x264-FENiX 10 3

Criminal Minds S17E01 - Gold Star

Summary:

The BAU wrestles with the death of Douglas Baily and Elias Voit's arrest. Rossi is haunted by visions of Voit. Lewis and Garcia vent to one another about their recent breakups. Prentiss uncovers a series of brutal killings linked by a specific calling card: a bullet casing engraved with a gold star. The Team learns that FBI Director Ray Madison has made a deal with Voit. In response, Rossi and Prentiss devise a plan to gain leverage over Voit to ensure he remains imprisoned.



Criminal Minds S17E01 1080p x265-ELiTE EZTV
Criminal Minds S17E1 Screenshot


General
Unique ID: 189835853482491963783567865387599480200 (0x8ED10E338BAE83B94D2A91C6FDD74588)
Complete name: Criminal Minds S17E01 1080p x265-ELiTE.mkv
Format: Matroska
Format version: Version 4
File size: 398 MiB
Duration: 52 min 17 s
Overall bit rate: 1 063 kb/s
Frame rate: 23.976 FPS
Movie name: Criminal.Minds.S17E01
Writing application: Lavf60.16.100
Writing library: Lavf60.16.100
Comment: ELiTE-Thu-06-Jun-2024,16:57:45,1080p,22,faster,Y,5365331,1920,816,2.35
ErrorDetectionType: Per level 1

Video
ID: 1
Format: HEVC
Format/Info: High Efficiency Video Coding
Format profile: Main 10@L4@Main
Codec ID: V_MPEGH/ISO/HEVC
Duration: 52 min 17 s
Bit rate: 594 kb/s
Width: 1 920 pixels
Height: 816 pixels
Display aspect ratio: 2.35:1
Frame rate mode: Constant
Frame rate: 23.976 (24000/1001) FPS
Color space: YUV
Chroma subsampling: 4:2:0 (Type 0)
Bit depth: 10 bits
Bits/(Pixel*Frame): 0.016
Stream size: 222 MiB (56%)
Writing library: x265 0.0:[Linux][GCC 4.8.5][64 bit] 10bit
Encoding settings: cpuid=1111039 / frame-threads=4 / wpp / no-pmode / no-pme / no-psnr / no-ssim / log-level=2 / input-csp=1 / input-res=1920x816 / interlace=0 / total-frames=0 / level-idc=0 / high-tier=1 / uhd-bd=0 / ref=2 / no-allow-non-conformance / no-repeat-headers / annexb / no-aud / no-hrd / info / hash=0 / no-temporal-layers / open-gop / min-keyint=23 / keyint=250 / gop-lookahead=0 / bframes=4 / b-adapt=0 / b-pyramid / bframe-bias=0 / rc-lookahead=15 / lookahead-slices=5 / scenecut=40 / hist-scenecut=0 / radl=0 / no-splice / no-intra-refresh / ctu=64 / min-cu-size=8 / no-rect / no-amp / max-tu-size=32 / tu-inter-depth=1 / tu-intra-depth=1 / limit-tu=0 / rdoq-level=0 / dynamic-rd=0.00 / no-ssim-rd / signhide / no-tskip / nr-intra=0 / nr-inter=0 / no-constrained-intra / strong-intra-smoothing / max-merge=2 / limit-refs=3 / no-limit-modes / me=1 / subme=2 / merange=57 / temporal-mvp / no-frame-dup / no-hme / weightp / no-weightb / no-analyze-src-pics / deblock=0:0 / sao / no-sao-non-deblock / rd=2 / selective-sao=4 / early-skip / rskip / fast-intra / no-tskip-fast / no-cu-lossless / no-b-intra / no-splitrd-skip / rdpenalty=0 / psy-rd=2.00 / psy-rdoq=0.00 / no-rd-refine / no-lossless / cbqpoffs=0 / crqpoffs=0 / rc=crf / crf=22.0 / qcomp=0.60 / qpstep=4 / stats-write=0 / stats-read=0 / ipratio=1.40 / pbratio=1.30 / aq-mode=2 / aq-strength=1.00 / cutree / zone-count=0 / no-strict-cbr / qg-size=32 / no-rc-grain / qpmax=69 / qpmin=0 / no-const-vbv / sar=1 / overscan=0 / videoformat=5 / range=0 / colorprim=1 / transfer=1 / colormatrix=1 / chromaloc=1 / chromaloc-top=0 / chromaloc-bottom=0 / display-window=0 / cll=0,0 / min-luma=0 / max-luma=1023 / log2-max-poc-lsb=8 / vui-timing-info / vui-hrd-info / slices=1 / no-opt-qp-pps / no-opt-ref-list-length-pps / no-multi-pass-opt-rps / scenecut-bias=0.05 / hist-threshold=0.01 / no-opt-cu-delta-qp / no-aq-motion / no-hdr10 / no-hdr10-opt / no-dhdr10-opt / no-idr-recovery-sei / analysis-reuse-level=0 / analysis-save-reuse-level=0 / analysis-load-reuse-level=0 / scale-factor=0 / refine-intra=0 / refine-inter=0 / refine-mv=1 / refine-ctu-distortion=0 / no-limit-sao / ctu-info=0 / no-lowpass-dct / refine-analysis-type=0 / copy-pic=1 / max-ausize-factor=1.0 / no-dynamic-refine / no-single-sei / no-hevc-aq / no-svt / no-field / qp-adaptation-range=1.00 / no-scenecut-aware-qpconformance-window-offsets / right=0 / bottom=0 / decoder-max-rate=0
Default: Yes
Forced: No
Color range: Limited
Color primaries: BT.709
Transfer characteristics: BT.709
Matrix coefficients: BT.709

Audio
ID: 2
Format: AC-3
Format/Info: Audio Coding 3
Commercial name: Dolby Digital
Codec ID: A_AC3
Duration: 52 min 17 s
Bit rate mode: Constant
Bit rate: 448 kb/s
Channel(s): 6 channels
Channel layout: L R C LFE Ls Rs
Sampling rate: 48.0 kHz
Frame rate: 31.250 FPS (1536 SPF)
Bit depth: 32 bits
Compression mode: Lossy
Stream size: 168 MiB (42%)
Writing library: Lavc60.31.102 ac3
Language: English
Service kind: Complete Main
Default: Yes
Forced: No

Text
ID: 3
Format: UTF-8
Codec ID: S_TEXT/UTF8
Codec ID/Info: UTF-8 Plain Text
Duration: 51 min 58 s
Language: English
Default: No
Forced: No
ssl  EZTV RSS EZTV Status | EZTV API | DMCA: [email protected]